img image001 image001 image001 image001 image001 image001 image001 image001 image001 image001 image001 image001 image001 image001 image001

Planets Sun Sun Sun
Статистика раздачи
Автор: Nickolas3434 | Размер: 5.32 ГБ | Добавлен: 24 сен 2015
Раздают: 244    Качают: 83
Скачать торрент
Скачать торрент
Описание торрента

СообщениеДобавлено: 24 сен 2015 


Информация о фильме
Название: София Прекрасная
Оригинальное название: Sofia the First
Год выхода: 2014
Жанр: мультфильм, фэнтези, семейный
Режиссер: Джэми Митчелл, Сэм Ригел, Ларри Лэйчлитер
В ролях: Эриэл Винтер, Сара Рамирез, Джим Каммингс, Уэйн Брэди, Дарси Роуз Барнс, Зак Каллисон, Джесс Харнелл, Дженнифер Хейл, Трэвис Виллингхем
О фильме:
Маленькая девочка, которая скоро станет принцессой, снова приглашает в гости своих лучших друзей! Тебя ждут музыка, веселье и волшебство!
Какая девочка не мечтает однажды проснуться принцессой! И прежде чем София сможет занять законное место на троне, вас ждут удивительные приключения: представление в зачарованном цирке, знакомство с ручным дракончиком и полет на волшебном ковре-самолете вместе с Софией и Эмбер! Но когда маленькие верные друзья сбиваются с пути в лазурной вышине, на помощь к ним приходит особый гость - принцесса Жасмин, которая расскажет всем маленьким принцессам, как не бояться приключений, быть сильной и верить в себя. Чудесные песни, незабываемые герои и замечательные сюрпризы.
"София Прекрасная: Как стать принцессой" открывает дверь в дивный мир, полный доброты, взаимовыручки и дружбы!
01. Две принцессы и младенец / Two Princesses and a Baby
02. Волшебный пир / The Enchanted Feast
03. Корона летучих наездников / The Flying Crown
04. Вместе с мамой / Mom's the Word
05. Молчаливый рыцарь / The Silent Knight
06. Экзамен по волшебным наукам / Enchanted Science Fair
07. Король на один день / King for a Day
08. Бойся исполнения желаний / When You Wish Upon a Well
09. Диковинки Гвен / Gizmo Gwen
10. София ужасная / Sofia the Second
11. Волшебные луга / Mystic Meadows
12. Принцессы спасатели / Princesses to the Rescue!
14. Изумрудный ключ / The Emerald Key
15. Пернатые приматы / Scrambled Pets
16. Принцессы на картине / The Princess Stays in the Picture
17. Бэйли-бум / Baileywhoops
18. Заклятие амулета / The Curse of Princess Ivy

Официальный сайт
Страна: США
Студия: Disney Television Animation, Walt Disney Productions
Продолжительность: ~00:22:00 серия
Перевод: Дублированный, включая и песни (Невафильм)
Файл
Кодек: XviD / MP3
Качество: WEBDLRip
Видео: MPEG4, XviD, 720x400 (16:9), 23.976 fps, 1 673 Kbps (0.242 bit/pixel)
Звук: MP3, 44.1 KHz, 2 ch, 192 Kbps, CBR
Complete name : Sofia the First .2014. WEB-DLRip. 2 seasonsS02E01.Two.Princesses.and.a.Baby.dub.avi
Format : AVI
Format/Info : Audio Video Interleave
File size : 303 MiB
Duration : 22mn 35s
Overall bit rate : 1 874 Kbps
Writing application : VirtualDubMod 1.5.10.3 | (build 2550/release)
Writing library : VirtualDubMod build 2550/release
Video
ID : 0
Format : MPEG-4 Visual
Format profile : Advanced Simple@L5
Format settings, BVOP : 1
Format settings, QPel : No
Format settings, GMC : No warppoints
Format settings, Matrix : Default (H.263)
Codec ID : XVID
Codec ID/Hint : XviD
Duration : 22mn 35s
Bit rate : 1 673 Kbps
Width : 720 pixels
Height : 400 pixels
Display aspect ratio : 16:9
Frame rate : 23.976 fps
Color space : YUV
Chroma subsampling : 4:2:0
Bit depth : 8 bits
Scan type : Progressive
Compression mode : Lossy
Bits/(Pixel*Frame) : 0.242
Stream size : 270 MiB (89%)
Writing library : XviD 1.2.1 (UTC 2008-12-04)
Audio
ID : 1
Format : MPEG Audio
Format version : Version 1
Format profile : Layer 3
Codec ID : 55
Codec ID/Hint : MP3
Duration : 22mn 35s
Bit rate mode : Constant
Bit rate : 192 Kbps
Channel(s) : 2 channels
Sampling rate : 44.1 KHz
Compression mode : Lossy
Stream size : 31.0 MiB (10%)
Alignment : Split accross interleaves
Interleave, duration : 42 ms (1.00 video frame)
Interleave, preload duration : 500 ms



   Похожие торренты   Торрент   Размер 
В этой теме нет новых непрочитанных сообщений. София Прекрасная / Sofia the First [S02] (2014) WEBDLRip | D

1103 | 150

8.45 ГБ

В этой теме нет новых непрочитанных сообщений. София Прекрасная / Sofia the First [02x1-12, 14-18, 20-22, 24] (2014) WEBDLRip | D

223 | 87

6.42 ГБ

В этой теме нет новых непрочитанных сообщений. София Прекрасная / Sofia the First [S01] (2012) WEBDLRip-AVC | D

279 | 100

6.66 ГБ

В этой теме нет новых непрочитанных сообщений. София Прекрасная / Sofia the First [03x01-02, 07, 13] (2015) WEBDLRip | D

274 | 73

1.95 ГБ

В этой теме нет новых непрочитанных сообщений. София Прекрасная / Sofia the First [03x01-02, 07, 13] (2015) WEBDLRip | D

416 | 30

1.17 ГБ

В этой теме нет новых непрочитанных сообщений. София Прекрасная / Sofia the First [S01] (2012) DVDRip | D

404 | 232

7.29 ГБ

В этой теме нет новых непрочитанных сообщений. София Прекрасная / Sofia the First [S01] (2012) DVDRip | D

482 | 183

7.3 ГБ




Вы не можете начинать темы
Вы не можете отвечать на сообщения
Вы не можете редактировать свои сообщения
Вы не можете удалять свои сообщения
Вы не можете добавлять вложения

Перейти:  
Для Мосгорсуда, Роскомнадзора и рекламодателей: mosgorsud-torrent[собачка]yandex.ru
 Вход
ppkBB3cker v.2 © 2008-2014 @ PPK
[ Time : 0.052s | 15 Queries | GZIP : Off ]

Торрент трекер RUTOR.IN, Не можете зайти на rutor.org? Какой новый адрес рутор? Какое зеркало рутор? Не работает rutor.org и зеркала? Тогда наш торрент специально для вас. Rutor.in неофициальное зеркало rutor. В случае если у Вас заблокирован rutor или вдруг Вы не можете на него зайти, то Вы без труда сможете скачать бесплатно и без рекламы последние новинки кино, игр, сериалов и прочего у нас, на Rutor.in. Не нужно использовать прокси, чтобы зайти на рутор, достаточно воспользоваться нашим ресурсом. Все новые фильмы, игры, сериалы, книги и музыка за 2013 и 2014 годы через торрент бесплатно. Скачивайте фильмы в хорошем качестве, игры для пк, xbox, playstation без регистрации. У нас вы найдете новые Зарубежные сериалы и Русские сериалы 2013, 2014, 2015 годов. Оставайтесь с нами, качайте любимые фильмы, игры, сериалы, книги и музыку.