img image001 image001 image001 image001 image001 image001 image001 image001 image001 image001 image001 image001 image001 image001 image001

Planets Sun Sun Sun
Статистика раздачи
Автор: Nickolas3434 | Размер: 8.47 ГБ | Добавлен: 29 сен 2015
Раздают: 60    Качают: 18
Скачать торрент
Скачать торрент
Описание торрента

СообщениеДобавлено: 29 сен 2015 


Информация о фильме
Название: Симпсоны
Оригинальное название: The Simpsons
Год выхода: 1994-1995
Жанр: мультфильм, комедия
Режиссер: Марк Керклэнд, Стивен Дин Мур, Боб Андерсон
В ролях: Дэн Кастелланета,Джули Кавнер,Нэнси Картрайт,Ярдли Смит,Гарри Ширер,Хэнк Азария,Памела Хейден,Тресс МакНилл,Карл Видерготт,Мэгги Росвэлл
О фильме:
«Симпсоны» (англ. The Simpsons) — самый длинный мультсериал в истории американского телевидения, длящийся 25 сезонов. Первая мини-серия «Good night» была показана в «Шоу Трейси Ульман» 19 апреля 1987 года. Демонстрация полноценных серий мультсериала началась 17 декабря 1989 года на канале FOX. Выпускается «Gracie Films» для кинокомпании «20th Century Fox». Мультсериал в настоящее время известен телезрителям более чем 100 стран.
Это насыщенное сатирой (в том числе социальной) шоу высмеивает многие клише и стереотипы, в частности — стиль жизни «среднестатистического американца», особенности мировых культур в целом, знаменитостей и даже само телевидение и телеканал «Fox»; не стесняется затрагивать такие скользкие вопросы, как политика и религия: в частности, поднимались темы однополых браков, борьбы дарвинистов и креационистов, войны в Ираке.

Страна: США
Студия: FOX
Продолжительность: 25x - 00:23:00
Перевод: профессиональный (многоголосый, закадровый) (Ren-TV)
Файл
Качество: DVDRip-AVC
Видео: 720x544-720х522 (4:3), 23.976 fps, x264, ~1900-1960 kbps avg, 0.190-0.206 bit/pixel
Звук: (MVO) 48 kHz, AC3 Dolby Digital, 2/0 (L,R) ch, 192.00 kbps avg
General
Unique ID : 190165057086187991000589230616047325824 (0x8F10753130CE756096C8899D30A91280)
Complete name : D:InstallМоИ Рипы by aZeR(Mr.El-DoRaDo)The Simpons DVDRip-AVC.by.AEZThe Simpsons S06 (1994-1995) DVDRip-AVC.by.AEZThe.Simpsons.S06.E01.Bart.of.Darkness.mkv
Format : Matroska
Format version : Version 4 / Version 2
File size : 347 MiB
Duration : 22mn 57s
Overall bit rate : 2 114 Kbps
Movie name : Симпсоны / The Simpsons [1994 г.] | Рип AEZ
Encoded date : UTC 2015-09-24 13:14:06
Writing application : mkvmerge v8.4.0 ('A better way to fly') 64bit
Writing library : libebml v1.3.1 + libmatroska v1.4.2
DURATION : 00:22:57.056000000
NUMBER_OF_FRAMES : 43033
NUMBER_OF_BYTES : 33049344
_STATISTICS_WRITING_APP : mkvmerge v8.4.0 ('A better way to fly') 64bit
_STATISTICS_WRITING_DATE_UT : 2015-09-24 13:14:06
_STATISTICS_TAGS : BPS DURATION NUMBER_OF_FRAMES NUMBER_OF_BYTES
Video
ID : 1
Format : AVC
Format/Info : Advanced Video Codec
Format profile : High@L4.1
Format settings, CABAC : Yes
Format settings, ReFrames : 10 frames
Codec ID : V_MPEG4/ISO/AVC
Duration : 22mn 57s
Bit rate : 1 922 Kbps
Width : 720 pixels
Height : 552 pixels
Display aspect ratio : 4:3
Frame rate mode : Constant
Frame rate : 23.976 fps
Color space : YUV
Chroma subsampling : 4:2:0
Bit depth : 8 bits
Scan type : Progressive
Bits/(Pixel*Frame) : 0.202
Stream size : 309 MiB (89%)
Title : The Simpsons S06 E01: Bart of Darkness
Writing library : x264 core 146 r2538 121396c
Encoding settings : cabac=1 / ref=10 / deblock=1:-2:-1 / analyse=0x3:0x133 / me=umh / subme=10 / psy=1 / psy_rd=1.00:0.00 / mixed_ref=1 / me_range=32 / chroma_me=1 / trellis=2 / 8x8dct=1 / cqm=0 / deadzone=21,11 / fast_pskip=1 / chroma_qp_offset=-2 / threads=9 / lookahead_threads=2 / sliced_threads=0 / nr=0 / decimate=1 / interlaced=0 / bluray_compat=0 / constrained_intra=0 / bframes=10 / b_pyramid=2 / b_adapt=2 / b_bias=0 / direct=1 / weightb=1 / open_gop=0 / weightp=2 / keyint=250 / keyint_min=25 / scenecut=40 / intra_refresh=0 / rc_lookahead=40 / rc=2pass / mbtree=0 / bitrate=1922 / ratetol=1.0 / qcomp=0.70 / qpmin=10 / qpmax=51 / qpstep=4 / cplxblur=20.0 / qblur=0.5 / vbv_maxrate=16500 / vbv_bufsize=16000 / nal_hrd=none / filler=0 / ip_ratio=1.40 / pb_ratio=1.30 / aq=1:1.00
Language : English
Default : Yes
Forced : No
Color range : Limited
Color primaries : BT.601 NTSC
Transfer characteristics : BT.709
Matrix coefficients : BT.601
Audio
ID : 2
Format : AC-3
Format/Info : Audio Coding 3
Mode extension : CM (complete main)
Format settings, Endianness : Big
Codec ID : A_AC3
Duration : 22mn 57s
Bit rate mode : Constant
Bit rate : 192 Kbps
Channel(s) : 2 channels
Channel positions : Front: L R
Sampling rate : 48.0 KHz
Compression mode : Lossy
Stream size : 31.5 MiB (9%)
Title : Многоголосый закадровый (Ren-TV)
Language : Russian
Default : Yes
Forced : No


Автор рипа: AEZ [/hide]



   Похожие торренты   Торрент   Размер 
В этой теме нет новых непрочитанных сообщений. Симпсоны / The Simpsons [S06] (1994-1995) DVDRip-AVC от AEZ

20 | 19

8.44 ГБ

В этой теме нет новых непрочитанных сообщений. Симпсоны / The Simpsons [S06] (1994-1995) SATRip

34 | 5

3.09 ГБ

В этой теме нет новых непрочитанных сообщений. Симпсоны / The Simpsons [S05] (1993-1994) DVDRip-AVC от AEZ

66 | 67

7.46 ГБ

В этой теме нет новых непрочитанных сообщений. Симпсоны / The Simpsons [S07] (1995-1996) DVDRip-AVC от AEZ

45 | 27

8.47 ГБ

В этой теме нет новых непрочитанных сообщений. Симпсоны / The Simpsons [S05] (1993-1994) SATRip

161 | 8

2.5 ГБ

В этой теме нет новых непрочитанных сообщений. Симпсоны / The Simpsons [S07] (1995-1996) SATRip

48 | 6

3.48 ГБ

В этой теме нет новых непрочитанных сообщений. Симпсоны / The Simpsons [s01] (1989) DVDRip

35 | 5

3.2 ГБ




Вы не можете начинать темы
Вы не можете отвечать на сообщения
Вы не можете редактировать свои сообщения
Вы не можете удалять свои сообщения
Вы не можете добавлять вложения

Перейти:  
Для Мосгорсуда, Роскомнадзора и рекламодателей: mosgorsud-torrent[собачка]yandex.ru
 Вход
ppkBB3cker v.2 © 2008-2014 @ PPK
[ Time : 0.053s | 14 Queries | GZIP : Off ]

Торрент трекер RUTOR.IN, Не можете зайти на rutor.org? Какой новый адрес рутор? Какое зеркало рутор? Не работает rutor.org и зеркала? Тогда наш торрент специально для вас. Rutor.in неофициальное зеркало rutor. В случае если у Вас заблокирован rutor или вдруг Вы не можете на него зайти, то Вы без труда сможете скачать бесплатно и без рекламы последние новинки кино, игр, сериалов и прочего у нас, на Rutor.in. Не нужно использовать прокси, чтобы зайти на рутор, достаточно воспользоваться нашим ресурсом. Все новые фильмы, игры, сериалы, книги и музыка за 2013 и 2014 годы через торрент бесплатно. Скачивайте фильмы в хорошем качестве, игры для пк, xbox, playstation без регистрации. У нас вы найдете новые Зарубежные сериалы и Русские сериалы 2013, 2014, 2015 годов. Оставайтесь с нами, качайте любимые фильмы, игры, сериалы, книги и музыку.