img image001 image001 image001 image001 image001 image001 image001 image001 image001 image001 image001 image001 image001 image001 image001

Planets Sun Sun Sun
Статистика раздачи
Автор: Nickolas3434 | Размер: 700.3 МБ | Добавлен: 29 сен 2015
Раздают: 662    Качают: 94
Скачать торрент
Скачать торрент
Описание торрента

СообщениеДобавлено: 29 сен 2015 

Информация о фильме
Название: Головоломка
Оригинальное название: Inside Out
Год выхода: 2015
Жанр: мультфильм, драма, комедия, семейный
Режиссер: Пит Доктер, Роналдо Дель Кармен
В ролях: Льюис Блэк, Минди Кейлинг, Билл Хейдер, Эми Полер, Филлис Смит, Ричард Кайнд, Кейтлин Диас, Дайан Лэйн, Кайл МакЛоклен, Пола Паундстон
О фильме: Райли - обычная 11-летняя школьница, и, как у каждого из нас, ее поведение определяют пять базовых эмоций: Радость, Печаль, Страх, Гнев и Брезгливость. Эмоции живут в сознании девочки и каждый день помогают ей справляться с проблемами, руководя всеми ее поступками. До поры до времени эмоции живут дружно, но вдруг оказывается, что Райли и ее родителям предстоит переезд из небольшого уютного городка в шумный и людный мегаполис. Каждая из эмоций считает, что именно она лучше прочих знает, что нужно делать в этой непростой ситуации, и в голове у девочки наступает полная неразбериха. Чтобы наладить жизнь в большом городе, освоиться в новой школе и подружиться с одноклассниками, эмоциям Райли предстоит снова научиться работать сообща.
Выпущено: США / Pixar Animation Studios, Walt Disney Pictures
Продолжительность: 01:34:34
Озвучивание: Дублированное [звук с CAMRip]
Файл
Формат: AVI (XviD)
Качество: HDTVRip
Видео: 896 kb/s, 640x352
Аудио: MP3, 128 kb/s (2 ch)
Размер: 700 MB
Скачать: Сэмпл
General
Complete name : Golovolomka.2015.D.HDTVRip.700Mb.avi
Format : AVI
Format/Info : Audio Video Interleave
File size : 700 MiB
Duration : 1h 34mn
Overall bit rate : 1 035 Kbps
Writing application : VirtualDubMod 1.5.10.2 (build 2540/release)
Writing library : VirtualDubMod build 2540/release
Video
ID : 0
Format : MPEG-4 Visual
Format profile : Advanced Simple@L5
Format settings, BVOP : 2
Format settings, QPel : No
Format settings, GMC : No warppoints
Format settings, Matrix : Default (MPEG)
Codec ID : XVID
Codec ID/Hint : XviD
Duration : 1h 34mn
Bit rate : 896 Kbps
Width : 640 pixels
Height : 352 pixels
Display aspect ratio : 16:9
Frame rate : 30.000 fps
Color space : YUV
Chroma subsampling : 4:2:0
Bit depth : 8 bits
Scan type : Progressive
Compression mode : Lossy
Bits/(Pixel*Frame) : 0.133
Stream size : 606 MiB (87%)
Writing library : XviD 1.2.1 (UTC 2008-12-04)
Audio
ID : 1
Format : MPEG Audio
Format version : Version 1
Format profile : Layer 3
Mode : Joint stereo
Mode extension : MS Stereo
Codec ID : 55
Codec ID/Hint : MP3
Duration : 1h 34mn
Bit rate mode : Constant
Bit rate : 128 Kbps
Channel(s) : 2 channels
Sampling rate : 48.0 KHz
Compression mode : Lossy
Stream size : 86.6 MiB (12%)
Alignment : Aligned on interleaves
Interleave, duration : 33 ms (1.00 video frame)
Interleave, preload duration : 504 ms






   Похожие торренты   Торрент   Размер 
В этой теме нет новых непрочитанных сообщений. Головоломка / Inside Out (2015) HDTVRip | Звук c CAMRip

2122 | 91

1.39 ГБ

В этой теме нет новых непрочитанных сообщений. Головоломка / Inside Out (2015) HDTV 720p | Звук c CAMRip

2040 | 46

3.74 ГБ

В этой теме нет новых непрочитанных сообщений. Головоломка / Inside Out (2015) HDTVRip | КПК | Чистый звук

162 | 9

813.21 МБ

В этой теме нет новых непрочитанных сообщений. Головоломка / Inside Out (2015) HDTVRip | Чистый звук

20492 | 416

1.45 ГБ

В этой теме нет новых непрочитанных сообщений. Головоломка / Inside Out (2015) HDTVRip | Чистый звук

1465 | 90

744.38 МБ

В этой теме нет новых непрочитанных сообщений. Головоломка / Inside Out (2015) CAMRip

11550 | 267

1.37 ГБ

В этой теме нет новых непрочитанных сообщений. Головоломка / Inside Out (2015) HDTV 720p | Чистый звук

6335 | 77

3.91 ГБ




Вы не можете начинать темы
Вы не можете отвечать на сообщения
Вы не можете редактировать свои сообщения
Вы не можете удалять свои сообщения
Вы не можете добавлять вложения

Перейти:  
Для Мосгорсуда, Роскомнадзора и рекламодателей: mosgorsud-torrent[собачка]yandex.ru
 Вход
ppkBB3cker v.2 © 2008-2014 @ PPK
[ Time : 0.043s | 18 Queries | GZIP : Off ]

cron