img image001 image001 image001 image001 image001 image001 image001 image001 image001 image001 image001 image001 image001 image001 image001

Planets Sun Sun Sun
Статистика раздачи
Автор: Nickolas3434 | Размер: 3.74 ГБ | Добавлен: 29 сен 2015
Раздают: 2040    Качают: 46
Скачать торрент
Скачать торрент
Описание торрента

СообщениеДобавлено: 29 сен 2015 

Информация о фильме
Название: Головоломка
Оригинальное название: Inside Out
Год выхода: 2015
Жанр: мультфильм, драма, комедия, семейный
Режиссер: Пит Доктер, Роналдо Дель Кармен
В ролях: Льюис Блэк, Минди Кейлинг, Билл Хейдер, Эми Полер, Филлис Смит, Ричард Кайнд, Кейтлин Диас, Дайан Лэйн, Кайл МакЛоклен, Пола Паундстон
О фильме: Райли - обычная 11-летняя школьница, и, как у каждого из нас, ее поведение определяют пять базовых эмоций: Радость, Печаль, Страх, Гнев и Брезгливость. Эмоции живут в сознании девочки и каждый день помогают ей справляться с проблемами, руководя всеми ее поступками. До поры до времени эмоции живут дружно, но вдруг оказывается, что Райли и ее родителям предстоит переезд из небольшого уютного городка в шумный и людный мегаполис. Каждая из эмоций считает, что именно она лучше прочих знает, что нужно делать в этой непростой ситуации, и в голове у девочки наступает полная неразбериха. Чтобы наладить жизнь в большом городе, освоиться в новой школе и подружиться с одноклассниками, эмоциям Райли предстоит снова научиться работать сообща.
Выпущено: США / Pixar Animation Studios, Walt Disney Pictures
Продолжительность: 01:34:34
Озвучивание: Дублированное [звук с CAMRip]
Файл
Формат: MKV (x264)
Качество: HDTV 720p
Видео: 5165 kb/s, 1280x720
Аудио: Russian: MP3, 192 kb/s (2 ch) / English: AC3, 192 kb/s (2 ch)
Размер: 3.73 GB
General
Unique ID : 225701879811490867220546796185457106254 (0xA9CC99D37DA6D8928C7FA24D82859D4E)
Complete name : Golovolomka.2015.D.HDTV.720p.mkv
Format : Matroska
Format version : Version 2
File size : 3.74 GiB
Duration : 1h 34mn
Overall bit rate : 5 661 Kbps
Encoded date : UTC 2015-09-28 15:51:35
Writing application : mkvmerge v8.3.0 ('Over the Horizon') 64bit
Writing library : libebml v1.3.1 + libmatroska v1.4.2
DURATION : 01:34:34.320000000
NUMBER_OF_FRAMES : 236430
NUMBER_OF_BYTES : 136183680
_STATISTICS_WRITING_APP : mkvmerge v8.3.0 ('Over the Horizon') 64bit
_STATISTICS_WRITING_DATE_UTC : 2015-09-28 15:51:35
_STATISTICS_TAGS : BPS DURATION NUMBER_OF_FRAMES NUMBER_OF_BYTES
Video
ID : 1
Format : AVC
Format/Info : Advanced Video Codec
Format profile : High@L3.1
Format settings, CABAC : Yes
Format settings, ReFrames : 3 frames
Codec ID : V_MPEG4/ISO/AVC
Duration : 1h 34mn
Bit rate : 5 165 Kbps
Width : 1 280 pixels
Height : 720 pixels
Display aspect ratio : 16:9
Frame rate mode : Constant
Frame rate : 30.000 fps
Standard : NTSC
Color space : YUV
Chroma subsampling : 4:2:0
Bit depth : 8 bits
Scan type : Progressive
Bits/(Pixel*Frame) : 0.187
Stream size : 3.41 GiB (91%)
Language : English
Default : Yes
Forced : No
Color range : Limited
Color primaries : BT.709
Transfer characteristics : BT.709
Matrix coefficients : BT.709
Audio #1
ID : 2
Format : MPEG Audio
Format version : Version 1
Format profile : Layer 3
Mode : Joint stereo
Mode extension : MS Stereo
Codec ID : A_MPEG/L3
Codec ID/Hint : MP3
Duration : 1h 34mn
Bit rate mode : Constant
Bit rate : 192 Kbps
Channel(s) : 2 channels
Sampling rate : 48.0 KHz
Compression mode : Lossy
Stream size : 130 MiB (3%)
Default : No
Forced : No
Audio #2
ID : 3
Format : AC-3
Format/Info : Audio Coding 3
Mode extension : CM (complete main)
Format settings, Endianness : Big
Codec ID : A_AC3
Duration : 1h 34mn
Bit rate mode : Constant
Bit rate : 192 Kbps
Channel(s) : 2 channels
Channel positions : Front: L R
Sampling rate : 48.0 KHz
Compression mode : Lossy
Stream size : 130 MiB (3%)
Language : English
Default : No
Forced : No






   Похожие торренты   Торрент   Размер 
В этой теме нет новых непрочитанных сообщений. Головоломка / Inside Out (2015) HDTVRip | Звук c CAMRip

662 | 94

700.3 МБ

В этой теме нет новых непрочитанных сообщений. Головоломка / Inside Out (2015) HDTVRip | Звук c CAMRip

2129 | 91

1.39 ГБ

В этой теме нет новых непрочитанных сообщений. Головоломка / Inside Out (2015) HDTV 720p | Чистый звук

6335 | 77

3.91 ГБ

В этой теме нет новых непрочитанных сообщений. Головоломка / Inside Out (2015) CAMRip

11616 | 267

1.37 ГБ

В этой теме нет новых непрочитанных сообщений. Головоломка / Inside Out (2015) HDTVRip | Чистый звук

20905 | 418

1.45 ГБ

В этой теме нет новых непрочитанных сообщений. Головоломка / Inside Out (2015) HDTVRip | Чистый звук

1465 | 90

744.38 МБ

В этой теме нет новых непрочитанных сообщений. Головоломка / Inside Out (2015) HDTVRip | КПК | Чистый звук

162 | 9

813.21 МБ




Вы не можете начинать темы
Вы не можете отвечать на сообщения
Вы не можете редактировать свои сообщения
Вы не можете удалять свои сообщения
Вы не можете добавлять вложения

Перейти:  
Для Мосгорсуда, Роскомнадзора и рекламодателей: mosgorsud-torrent[собачка]yandex.ru
 Вход
ppkBB3cker v.2 © 2008-2014 @ PPK
[ Time : 0.057s | 17 Queries | GZIP : Off ]

Торрент трекер RUTOR.IN, Не можете зайти на rutor.org? Какой новый адрес рутор? Какое зеркало рутор? Не работает rutor.org и зеркала? Тогда наш торрент специально для вас. Rutor.in неофициальное зеркало rutor. В случае если у Вас заблокирован rutor или вдруг Вы не можете на него зайти, то Вы без труда сможете скачать бесплатно и без рекламы последние новинки кино, игр, сериалов и прочего у нас, на Rutor.in. Не нужно использовать прокси, чтобы зайти на рутор, достаточно воспользоваться нашим ресурсом. Все новые фильмы, игры, сериалы, книги и музыка за 2013 и 2014 годы через торрент бесплатно. Скачивайте фильмы в хорошем качестве, игры для пк, xbox, playstation без регистрации. У нас вы найдете новые Зарубежные сериалы и Русские сериалы 2013, 2014, 2015 годов. Оставайтесь с нами, качайте любимые фильмы, игры, сериалы, книги и музыку.
cron