img image001 image001 image001 image001 image001 image001 image001 image001 image001 image001 image001 image001 image001 image001 image001

Planets Sun Sun Sun
Статистика раздачи
Автор: Nickolas3434 | Размер: 339.21 МБ | Добавлен: 01 окт 2015
Раздают: 65    Качают: 4
Скачать торрент
Скачать торрент
Описание торрента

СообщениеДобавлено: 01 окт 2015 


Информация о фильме
Название: Судьба
Оригинальное название: Destino
Год выхода: 2003
Жанр: Анимация, Сюрреализм
Режиссер: Доминик Монфери
В 1946 году Дали и Дисней подписали контракт на производство сюрреалистичного мультфильма «Destino». Но между гениальным живописцем и не менее гениальным мультипликатором «разногласия» были неизбежны. Сальвадор Дали запросил баснословную сумму и упорствовал, что до завершения мультфильм не должен являться собственностью Диснея. Закончить работу над мультфильмом Диснею помешали финансовые проблемы, в послевоенные годы аниматор создавал большое количество картин по заказу правительства и почти ничего не зарабатывал. «Дестино» воссоздали из сотен раскадровок, рисунков и набросков, созданных в 1945-м – 1946-м годах. Они хранились в архивах племянника Уолта Диснея, Роя. Он, кстати, вошёл в команду из 25-ти аниматоров, работавших над мультфильмом. Сотрудничество студии Диснея с Дали началось в 40-м году с мультфильма «Фантазия» (ставшего классикой мультипликации), именно тогда основатель знаменитой студии решил, что взаимодействие с художником поможет возвести анимацию в ранг «высокого искусства». После 60-летних мучений «Destino» был завершен — и только в 2003 году увидел свет.

Страна: США, Франция
Продолжительность: 00:06:31 ч.
Перевод: Не требуется
Файл
Кодек: H264
Качество: BDRip 1080p.
Видео: 1920:1080p., ar-16:9, 23,976 fps, 6950 kbps.
Звук: AC3, 320 kbps, 48.0 kHz, Stereo

Общее
Уникальный идентификатор : 216154607692318824470385077287461870186 (0xA29DDCF7DEA3AC4BA6EB203D74D45A6A)
Полное имя : D:Торрент файлыDestino. 2003.mkv
Формат : Matroska
Версия формата : Version 4 / Version 2
Размер файла : 339 Мбайт
Продолжительность : 6 м. 31 с.
Общий поток : 7270 Кбит/сек
Дата кодирования : UTC 2015-10-01 05:26:01
Программа кодирования : mkvmerge v7.0.0 ('Where We Going') 64bit built on Jun 9 2014 15:16:27
Библиотека кодирования : libebml v1.3.0 + libmatroska v1.4.1
Видео
Идентификатор : 1
Формат : AVC
Формат/Информация : Advanced Video Codec
Профиль формата : High@L4.1
Параметр CABAC формата : Да
Параметр ReFrames формата : 3 кадра
Идентификатор кодека : V_MPEG4/ISO/AVC
Продолжительность : 6 м. 31 с.
Битрейт : 6950 Кбит/сек
Ширина : 1920 пикселей
Высота : 1080 пикселей
Соотношение сторон : 16:9
Режим частоты кадров : Постоянный
Частота кадров : 23,976 кадра/сек
Цветовое пространство : YUV
Субдискретизация насыщенности : 4:2:0
Битовая глубина : 8 бит
Тип развёртки : Прогрессивная
Бит/(Пиксели*Кадры) : 0.140
Размер потока : 318 Мбайт (94%)
Заголовок : Destino. 2003
Библиотека кодирования : x264 core 116 r2019M 9cc407d
Настройки программы : cabac=1 / ref=4 / deblock=1:1:1 / analyse=0x3:0x133 / me=tesa / subme=10 / psy=1 / psy_rd=0.40:0.15 / mixed_ref=1 / me_range=32 / chroma_me=1 / trellis=2 / 8x8dct=1 / cqm=0 / deadzone=21,11 / fast_pskip=1 / chroma_qp_offset=-3 / threads=10 / sliced_threads=0 / nr=0 / decimate=1 / interlaced=0 / bluray_compat=0 / constrained_intra=0 / bframes=4 / b_pyramid=1 / b_adapt=2 / b_bias=0 / direct=3 / weightb=1 / open_gop=0 / weightp=2 / keyint=230 / keyint_min=23 / scenecut=40 / intra_refresh=0 / rc_lookahead=40 / rc=2pass / mbtree=1 / bitrate=6950 / ratetol=1.0 / qcomp=0.60 / qpmin=10 / qpmax=51 / qpstep=4 / cplxblur=20.0 / qblur=0.5 / ip_ratio=1.40 / aq=1:0.60
Язык : English
Default : Да
Forced : Нет
DURATION : 00:06:31.392000000
NUMBER_OF_FRAMES : 12231
NUMBER_OF_BYTES : 15655680
_STATISTICS_WRITING_APP : mkvmerge v7.0.0 ('Where We Going') 64bit built on Jun 9 2014 15:16:27
_STATISTICS_WRITING_DATE_UTC : 2015-10-01 05:26:01
_STATISTICS_TAGS : BPS DURATION NUMBER_OF_FRAMES NUMBER_OF_BYTES
Аудио
Идентификатор : 2
Формат : AC-3
Формат/Информация : Audio Coding 3
Расширение режима : CM (complete main)
Параметр Endianness формата : Big
Идентификатор кодека : A_AC3
Продолжительность : 6 м. 31 с.
Вид битрейта : Постоянный
Битрейт : 320 Кбит/сек
Каналы : 2 канала
Расположение каналов : Front: L R
Частота : 48,0 КГц
Битовая глубина : 16 бит
Метод сжатия : С потерями
Размер потока : 14,9 Мбайт (4%)
Заголовок : Destino
Язык : English
Default : Да
Forced : Нет
DURATION : 00:06:31.224000000
NUMBER_OF_FRAMES : 9380
NUMBER_OF_BYTES : 339933566
_STATISTICS_WRITING_APP : mkvmerge v7.0.0 ('Where We Going') 64bit built on Jun 9 2014 15:16:27
_STATISTICS_WRITING_DATE_UTC : 2015-10-01 05:26:01
_STATISTICS_TAGS : BPS DURATION NUMBER_OF_FRAMES NUMBER_OF_BYTES



   Похожие торренты   Торрент   Размер 
В этой теме нет новых непрочитанных сообщений. Судьба / Destino (2003) BDRip

7 | 4

107.17 МБ

В этой теме нет новых непрочитанных сообщений. Судьба / Destino (2003) DVDRip - Zona-X

1 | 2

77.62 МБ

В этой теме нет новых непрочитанных сообщений. Дмитрий Щеглов - Фаина Раневская: Судьба - шлюха (2003) (2008) MP3

25 | 4

75.61 МБ

В этой теме нет новых непрочитанных сообщений. Дмитрий Щеглов - Фаина Раневская: Судьба - шлюха (2003) (2009) MP3

4 | 2

294.94 МБ

В этой теме нет новых непрочитанных сообщений. Байонетта: Кровавая судьба / Bayonetta: Bloody Fate [Movie] (2013) BDRip 1080p | L

125 | 14

3.74 ГБ

В этой теме нет новых непрочитанных сообщений. Судьба напрокат (2016) WEB-DL 1080p от Files-x

839 | 19

1.83 ГБ

В этой теме нет новых непрочитанных сообщений. Судьба по имени любовь [01-04 из 04] (2016) WEB-DL 1080p от Files-x

6 | 5

4.01 ГБ




Вы не можете начинать темы
Вы не можете отвечать на сообщения
Вы не можете редактировать свои сообщения
Вы не можете удалять свои сообщения
Вы не можете добавлять вложения

Перейти:  
Для Мосгорсуда, Роскомнадзора и рекламодателей: mosgorsud-torrent[собачка]yandex.ru
 Вход
ppkBB3cker v.2 © 2008-2014 @ PPK
[ Time : 0.046s | 14 Queries | GZIP : Off ]

Торрент трекер RUTOR.IN, Не можете зайти на rutor.org? Какой новый адрес рутор? Какое зеркало рутор? Не работает rutor.org и зеркала? Тогда наш торрент специально для вас. Rutor.in неофициальное зеркало rutor. В случае если у Вас заблокирован rutor или вдруг Вы не можете на него зайти, то Вы без труда сможете скачать бесплатно и без рекламы последние новинки кино, игр, сериалов и прочего у нас, на Rutor.in. Не нужно использовать прокси, чтобы зайти на рутор, достаточно воспользоваться нашим ресурсом. Все новые фильмы, игры, сериалы, книги и музыка за 2013 и 2014 годы через торрент бесплатно. Скачивайте фильмы в хорошем качестве, игры для пк, xbox, playstation без регистрации. У нас вы найдете новые Зарубежные сериалы и Русские сериалы 2013, 2014, 2015 годов. Оставайтесь с нами, качайте любимые фильмы, игры, сериалы, книги и музыку.