img image001 image001 image001 image001 image001 image001 image001 image001 image001 image001 image001 image001 image001 image001 image001

Planets Sun Sun Sun
Статистика раздачи
Автор: Nickolas3434 | Размер: 418.22 МБ | Добавлен: 03 окт 2015
Раздают: 313    Качают: 25
Скачать торрент
Скачать торрент
Описание торрента

СообщениеДобавлено: 03 окт 2015 


Информация о фильме
Название: Руины
Оригинальное название: Ruin
Год выхода: 2012
Жанр: Короткометражка, Мультфильм, Фантастика
Режиссер: Уэс Болл / Wes Ball
О фильме:
В будущем, когда города разрушились и были поглощены дикой природой, мы присоединяемся к одинокому человеку, исследующему руины компании Хэйвен Наносистемс. Обнаружив закрытый контейнер, он, кажется, нашел то, что искал - информацию, имеющую отношение к закрытому на карантин корпусу "Б". Но, в этот момент героя обнаруживает дрон и начинается погоня...

Страна: США
Студия: Attraktion Films, Oddball Animation
Продолжительность: 00:08:11
Перевод: Не требуется
Файл
Кодек: H.264
Качество: BDRip 720р от SuperMin
Видео: 1280x720 (16:9), 6550 kbps, 23.976 fps
Звук: (AC-3, 6ch, 448 kbps)
Video
ID : 1
Format : AVC
Format/Info : Advanced Video Codec
Format profile : High@L4.1
Format settings, CABAC : Yes
Format settings, ReFrames : 9 frames
Codec ID : V_MPEG4/ISO/AVC
Duration : 8mn 11s
Bit rate : 6 550 Kbps
Width : 1 280 pixels
Height : 720 pixels
Display aspect ratio : 16:9
Frame rate mode : Constant
Frame rate : 23.976 fps
Color space : YUV
Chroma subsampling : 4:2:0
Bit depth : 8 bits
Scan type : Progressive
Bits/(Pixel*Frame) : 0.296
Stream size : 384 MiB (92%)
Writing library : x264 core 146 r2538kMod 121396c
Encoding settings : cabac=1 / ref=9 / deblock=1:0:0 / analyse=0x3:0x133 / me=umh / subme=11 / psy=1 / fade_compensate=0.00 / psy_rd=1.00:0.00 / mixed_ref=1 / me_range=32 / chroma_me=1 / trellis=2 / 8x8dct=1 / cqm=0 / deadzone=21,11 / fast_pskip=0 / chroma_qp_offset=-2 / threads=12 / lookahead_threads=2 / sliced_threads=0 / nr=0 / decimate=1 / interlaced=0 / bluray_compat=0 / constrained_intra=0 / fgo=0 / bframes=8 / b_pyramid=2 / b_adapt=2 / b_bias=0 / direct=3 / weightb=1 / open_gop=0 / weightp=2 / keyint=240 / keyint_min=23 / scenecut=40 / intra_refresh=0 / rc_lookahead=40 / rc=crf / mbtree=1 / crf=18.0000 / qcomp=0.60 / qpmin=0 / qpmax=69 / qpstep=4 / ip_ratio=1.40 / aq=1:1.00
Default : Yes
Forced : No
Audio
ID : 2
Format : AC-3
Format/Info : Audio Coding 3
Mode extension : CM (complete main)
Format settings, Endianness : Big
Codec ID : A_AC3
Duration : 8mn 11s
Bit rate mode : Constant
Bit rate : 448 Kbps
Channel count : 6 channels
Channel positions : Front: L C R, Side: L R, LFE
Sampling rate : 48.0 KHz
Bit depth : 16 bits
Compression mode : Lossy
Stream size : 26.2 MiB (6%)
Language : English
Default : Yes
Forced : No



   Похожие торренты   Торрент   Размер 
В этой теме нет новых непрочитанных сообщений. Руины / Ruin (2012) HDRip 720p | от StreamZone

29 | 4

166.22 МБ

В этой теме нет новых непрочитанных сообщений. Руины / Ruin (2011) BDRip 1080p от Ash61 | 3D-Video | halfOU

527 | 26

1.11 ГБ

В этой теме нет новых непрочитанных сообщений. Rammstein - Videos (1995-2012) BDRip 720р от SuperMin

353 | 27

5.09 ГБ

В этой теме нет новых непрочитанных сообщений. Шевели ластами 2 / Sammy's avonturen 2 (2012) BDRip 720р от SuperMin | D

251 | 14

2.18 ГБ

В этой теме нет новых непрочитанных сообщений. Младенец на $30 000 000 / Bo bui gai wak (2006) BDRip 720р от SuperMin | P2

55 | 15

4.43 ГБ

В этой теме нет новых непрочитанных сообщений. Чудеса / Ji Ji (1989) BDRip 720р от SuperMin | P

51 | 19

3.43 ГБ

В этой теме нет новых непрочитанных сообщений. Шаолинь / San siu lam zi (2011) BDRip 720р от SuperMin | P

286 | 26

3.07 ГБ




Вы не можете начинать темы
Вы не можете отвечать на сообщения
Вы не можете редактировать свои сообщения
Вы не можете удалять свои сообщения
Вы не можете добавлять вложения

Перейти:  
Для Мосгорсуда, Роскомнадзора и рекламодателей: mosgorsud-torrent[собачка]yandex.ru
 Вход
ppkBB3cker v.2 © 2008-2014 @ PPK
[ Time : 0.043s | 14 Queries | GZIP : Off ]

Торрент трекер RUTOR.IN, Не можете зайти на rutor.org? Какой новый адрес рутор? Какое зеркало рутор? Не работает rutor.org и зеркала? Тогда наш торрент специально для вас. Rutor.in неофициальное зеркало rutor. В случае если у Вас заблокирован rutor или вдруг Вы не можете на него зайти, то Вы без труда сможете скачать бесплатно и без рекламы последние новинки кино, игр, сериалов и прочего у нас, на Rutor.in. Не нужно использовать прокси, чтобы зайти на рутор, достаточно воспользоваться нашим ресурсом. Все новые фильмы, игры, сериалы, книги и музыка за 2013 и 2014 годы через торрент бесплатно. Скачивайте фильмы в хорошем качестве, игры для пк, xbox, playstation без регистрации. У нас вы найдете новые Зарубежные сериалы и Русские сериалы 2013, 2014, 2015 годов. Оставайтесь с нами, качайте любимые фильмы, игры, сериалы, книги и музыку.