img image001 image001 image001 image001 image001 image001 image001 image001 image001 image001 image001 image001 image001 image001 image001

Planets Sun Sun Sun
Статистика раздачи
Автор: Nickolas3434 | Размер: 72.86 МБ | Добавлен: 03 окт 2015
Раздают: 141    Качают: 12
Скачать торрент
Скачать торрент
Описание торрента

СообщениеДобавлено: 03 окт 2015 


Информация о фильме
Название: Самолёты. Пожарный десант
Оригинальное название: Planes. Smoke jumpers
Год выхода: 2014
Жанр: Короткометражка, мультфильм
Режиссер: Роберт Ганнавей / Robert Gannaway
О фильме:
История о пожарном десанте, где показано как оперативно и дружно они работают в команд. Одних из героев мультфильма "Самолёты".
Страна: США
Продолжительность: 00:01:45
Перевод: Профессиональный (Дублированный)
Файл
Кодек: H.264
Качество: BDRip 720р от SuperMin
Видео: 1280x720 (16:9), 5066 kbps, 23.976 fps
Звук:
Русский (AC-3, 2ch, 320 kbps)
Английский (AC-3, 2ch, 320 kbps)
Субтитры: русские, английские
Video
ID : 1
Format : AVC
Format/Info : Advanced Video Codec
Format profile : High@L4.1
Format settings, CABAC : Yes
Format settings, ReFrames : 9 frames
Codec ID : V_MPEG4/ISO/AVC
Duration : 1mn 44s
Bit rate : 5 066 Kbps
Width : 1 280 pixels
Height : 720 pixels
Display aspect ratio : 16:9
Frame rate mode : Constant
Frame rate : 23.976 fps
Color space : YUV
Chroma subsampling : 4:2:0
Bit depth : 8 bits
Scan type : Progressive
Bits/(Pixel*Frame) : 0.229
Stream size : 63.4 MiB (87%)
Writing library : x264 core 146 r2538kMod 121396c
Encoding settings : cabac=1 / ref=9 / deblock=1:0:0 / analyse=0x3:0x133 / me=esa / subme=11 / psy=1 / fade_compensate=0.00 / psy_rd=1.00:0.00 / mixed_ref=1 / me_range=32 / chroma_me=1 / trellis=2 / 8x8dct=1 / cqm=0 / deadzone=21,11 / fast_pskip=0 / chroma_qp_offset=-2 / threads=12 / lookahead_threads=2 / sliced_threads=0 / nr=0 / decimate=1 / interlaced=0 / bluray_compat=0 / constrained_intra=0 / fgo=0 / bframes=8 / b_pyramid=2 / b_adapt=2 / b_bias=0 / direct=3 / weightb=1 / open_gop=0 / weightp=2 / keyint=240 / keyint_min=23 / scenecut=40 / intra_refresh=0 / rc_lookahead=40 / rc=crf / mbtree=1 / crf=18.0000 / qcomp=0.60 / qpmin=0 / qpmax=69 / qpstep=4 / ip_ratio=1.40 / aq=1:1.00
Default : Yes
Forced : No
Audio #1
ID : 2
Format : AC-3
Format/Info : Audio Coding 3
Mode extension : CM (complete main)
Format settings, Endianness : Big
Codec ID : A_AC3
Duration : 1mn 44s
Bit rate mode : Constant
Bit rate : 320 Kbps
Channel count : 2 channels
Channel positions : Front: L R
Sampling rate : 48.0 KHz
Bit depth : 16 bits
Compression mode : Lossy
Stream size : 4.01 MiB (5%)
Title : DUB
Language : Russian
Default : Yes
Forced : No
Audio #2
ID : 3
Format : AC-3
Format/Info : Audio Coding 3
Mode extension : CM (complete main)
Format settings, Endianness : Big
Codec ID : A_AC3
Duration : 1mn 44s
Bit rate mode : Constant
Bit rate : 320 Kbps
Channel count : 2 channels
Channel positions : Front: L R
Sampling rate : 48.0 KHz
Bit depth : 16 bits
Compression mode : Lossy
Stream size : 4.01 MiB (5%)
Title : ENG
Language : English
Default : No
Forced : No
Text #1
ID : 4
Format : UTF-8
Codec ID : S_TEXT/UTF8
Codec ID/Info : UTF-8 Plain Text
Title : Rus Sub
Language : Russian
Default : No
Forced : No
Text #2
ID : 5
Format : UTF-8
Codec ID : S_TEXT/UTF8
Codec ID/Info : UTF-8 Plain Text
Title : Eng Sub
Language : English
Default : No
Forced : No




   Похожие торренты   Торрент   Размер 
В этой теме нет новых непрочитанных сообщений. Самолёты. Плюшка / Planes. Dipper (2014) BDRip 720р от SuperMin

123 | 12

63.37 МБ

В этой теме нет новых непрочитанных сообщений. Самолёты. Cyпepфocфaт-плюc / Planes. Vitaminamulch (2014) BDRip 720р от SuperMin

145 | 11

194.69 МБ

В этой теме нет новых непрочитанных сообщений. Самолеты / Planes (2013) BDRip 1080 от SuperMin

217 | 18

4.37 ГБ

В этой теме нет новых непрочитанных сообщений. Самолеты: Огонь и вода / Planes: Fire and Rescue (2014) BDRip-AVC от MediaClub | D | Лицензия

135 | 8

1.81 ГБ

В этой теме нет новых непрочитанных сообщений. Самолеты: Огонь и вода / Planes: Fire and Rescue (2014) BDRip-AVC от HELLYWOOD | Лицензия

244 | 17

2.16 ГБ

В этой теме нет новых непрочитанных сообщений. Самолеты: Огонь и вода / Planes: Fire and Rescue (2014) BDRip 720p от HDClub

306 | 17

5.01 ГБ

В этой теме нет новых непрочитанных сообщений. Самолеты: Огонь и вода / Planes: Fire and Rescue (2014) BDRip-AVC от New-Team | D | iTunes

516 | 15

1.45 ГБ




Вы не можете начинать темы
Вы не можете отвечать на сообщения
Вы не можете редактировать свои сообщения
Вы не можете удалять свои сообщения
Вы не можете добавлять вложения

Перейти:  
Для Мосгорсуда, Роскомнадзора и рекламодателей: mosgorsud-torrent[собачка]yandex.ru
 Вход
ppkBB3cker v.2 © 2008-2014 @ PPK
[ Time : 0.031s | 16 Queries | GZIP : Off ]

cron