img image001 image001 image001 image001 image001 image001 image001 image001 image001 image001 image001 image001 image001 image001 image001

Planets Sun Sun Sun
Статистика раздачи
Автор: Nickolas3434 | Размер: 2.08 ГБ | Добавлен: 05 окт 2015
Раздают: 67    Качают: 26
Скачать торрент
Скачать торрент
Описание торрента

СообщениеДобавлено: 05 окт 2015 


Название: Легенда о динозаврах
Оригинальное название: March of the Dinosaurs
Год выпуска: 2011
Страна: Великобритания, Канада
Жанр: мультфильм, документальный, драма
Продолжительность: 01:27:06
Перевод: профессиональный одноголосый
Режиссёр: Мэттью Томпсон
В ролях: Стивен Фрай, Саймон Керр
Описание: Поход динозавров - полуторачасовая история, рассказывающая о том, как несколько динозавров мелового периода мигрировали на сотни километров к богатым пастбищам крайнего севера. В то же время другие динозавры сделали север с его холодными темными зимами своим постоянным домом. Фильм основан на реальных научных свидетельствах того, что некоторые динозавры мигрировали на огромные расстояния за пищей, пока другие постоянно проживали на севере Америки. В этой анимационной картине показывается жизнь динозавров более 70 миллионов лет назад. Главные герои - два молодых динозавра. Скар - молодой эдмонтозавр-вегетарианец, вылупившийся весной, и Патч - молодой плотоядный самец трудона. Как хищник, Патч всё лето питался детёнышами эдмонтозавров. К несчастью для него его любимая еда собирается вскоре пересилиться на юг. Трудоны, вроде Патча, способны выжить зимой, и в фильме показывается его жизнь на жестоком севере. Выживет только сильнейший, и они сражаются за остатки пищи в постоянной темноте. Подойдут любые средства...

Качество: BDRip AVC Сравнение с исходником
Формат: MKV
Видео: MPEG-4 AVC, 2460 Кбит/с, 1024x576, 25 кадра/с
Аудио 1: русский, AC3, 448 kbps, 6 ch, 48 kHz [профессиональный одноголосый]
Аудио 2: английский, AC3, 448 kbps, 6 ch, 48 kHz [оригинал]
Общее
Уникальный идентификатор : 193563081650457522816972119994347481914 (0x919EE4BCEE2D2A2FAACF341F3822EB3A)
Полное имя : D:VideoЛегенда о динозаврах.2011.BDRip.AVC.mkv
Формат : Matroska
Версия формата : Version 4 / Version 2
Размер файла : 2,08 Гбайт
Продолжительность : 1 ч. 27 м.
Общий поток : 3424 Кбит/сек
Название фильма : BDRip -- STarankov
Дата кодирования : UTC 2015-10-04 09:35:03
Программа кодирования : mkvmerge v8.2.0 ('World of Adventure') 64bit
Библиотека кодирования : libebml v1.3.1 + libmatroska v1.4.2
DURATION : 01:27:06.048000000
NUMBER_OF_FRAMES : 163314
NUMBER_OF_BYTES : 292658688
_STATISTICS_WRITING_APP : mkvmerge v8.2.0 ('World of Adventure') 64bit
_STATISTICS_WRITING_DATE_UTC : 2015-10-04 09:35:03
_STATISTICS_TAGS : BPS DURATION NUMBER_OF_FRAMES NUMBER_OF_BYTES
Видео
Идентификатор : 1
Формат : AVC
Формат/Информация : Advanced Video Codec
Профиль формата : High@L4.1
Параметр CABAC формата : Да
Параметр ReFrames формата : 6 кадров
Идентификатор кодека : V_MPEG4/ISO/AVC
Продолжительность : 1 ч. 27 м.
Битрейт : 2460 Кбит/сек
Ширина : 1024 пикселя
Высота : 576 пикселей
Соотношение сторон : 16:9
Режим частоты кадров : Постоянный
Частота кадров : 25,000 кадров/сек
Цветовое пространство : YUV
Субдискретизация насыщенности : 4:2:0
Битовая глубина : 8 бит
Тип развёртки : Прогрессивная
Бит/(Пиксели*Кадры) : 0.167
Размер потока : 1,50 Гбайт (72%)
Библиотека кодирования : x264 core 146 r2538 121396c
Настройки программы : cabac=1 / ref=6 / deblock=1:1:1 / analyse=0x3:0x113 / me=umh / subme=10 / psy=1 / psy_rd=0.40:0.00 / mixed_ref=1 / me_range=32 / chroma_me=1 / trellis=2 / 8x8dct=1 / cqm=0 / deadzone=21,11 / fast_pskip=1 / chroma_qp_offset=-2 / threads=6 / lookahead_threads=1 / sliced_threads=0 / nr=0 / decimate=1 / interlaced=0 / bluray_compat=0 / constrained_intra=0 / bframes=5 / b_pyramid=2 / b_adapt=2 / b_bias=0 / direct=1 / weightb=1 / open_gop=0 / weightp=2 / keyint=240 / keyint_min=24 / scenecut=40 / intra_refresh=0 / rc_lookahead=40 / rc=crf / mbtree=1 / crf=16.0 / qcomp=0.60 / qpmin=0 / qpmax=69 / qpstep=4 / vbv_maxrate=40000 / vbv_bufsize=50000 / crf_max=0.0 / nal_hrd=none / filler=0 / ip_ratio=1.40 / aq=1:0.60
Язык : English
Default : Да
Forced : Нет
DURATION : 01:27:06.040000000
NUMBER_OF_FRAMES : 130651
NUMBER_OF_BYTES : 1650000998
_STATISTICS_WRITING_APP : mkvmerge v8.2.0 ('World of Adventure') 64bit
_STATISTICS_WRITING_DATE_UTC : 2015-10-04 09:35:03
_STATISTICS_TAGS : BPS DURATION NUMBER_OF_FRAMES NUMBER_OF_BYTES
Аудио #1
Идентификатор : 2
Формат : AC-3
Формат/Информация : Audio Coding 3
Расширение режима : CM (complete main)
Параметр Endianness формата : Big
Идентификатор кодека : A_AC3
Продолжительность : 1 ч. 27 м.
Вид битрейта : Постоянный
Битрейт : 448 Кбит/сек
Каналы : 6 каналов
Расположение каналов : Front: L C R, Side: L R, LFE
Частота : 48,0 КГц
Метод сжатия : С потерями
Размер потока : 279 Мбайт (13%)
Заголовок : профессиональный одноголосый
Язык : Russian
Default : Да
Forced : Нет
Аудио #2
Идентификатор : 3
Формат : AC-3
Формат/Информация : Audio Coding 3
Расширение режима : CM (complete main)
Параметр Endianness формата : Big
Идентификатор кодека : A_AC3
Продолжительность : 1 ч. 27 м.
Вид битрейта : Постоянный
Битрейт : 448 Кбит/сек
Каналы : 6 каналов
Расположение каналов : Front: L C R, Side: L R, LFE
Частота : 48,0 КГц
Метод сжатия : С потерями
Размер потока : 279 Мбайт (13%)
Заголовок : Original
Язык : English
Default : Нет
Forced : Нет





   Похожие торренты   Торрент   Размер 
В этой теме нет новых непрочитанных сообщений. Легенда о динозаврах / March of the Dinosaurs (2011) BDRip 1080p by msltel

70 | 25

5.4 ГБ

В этой теме нет новых непрочитанных сообщений. Легенда о динозаврах / March of the Dinosaurs (2011) BDRip 720p by msltel

118 | 8

2.66 ГБ

В этой теме нет новых непрочитанных сообщений. Легенда о динозаврах / Поход динозавров / March of the Dinosaurs (2011) BDRip 720p

41 | 3

3.56 ГБ

В этой теме нет новых непрочитанных сообщений. Легенда о динозаврах / Поход динозавров / March of the Dinosaurs (2011) HDRip

102 | 10

1.37 ГБ

В этой теме нет новых непрочитанных сообщений. Легенда о динозаврах / Поход динозавров / March of the Dinosaurs (2011) HDRip

2 | 1

695.55 МБ

В этой теме нет новых непрочитанных сообщений. Легенда о динозаврах / Поход динозавров / March of the Dinosaurs (2011) HDRip | Лицензия

21 | 3

744.33 МБ

В этой теме нет новых непрочитанных сообщений. Легенда о динозаврах / Поход динозавров / March of the Dinosaurs (2011) HDRip-AVC от potroks

3 | 1

1.45 ГБ




Вы не можете начинать темы
Вы не можете отвечать на сообщения
Вы не можете редактировать свои сообщения
Вы не можете удалять свои сообщения
Вы не можете добавлять вложения

Перейти:  
Для Мосгорсуда, Роскомнадзора и рекламодателей: mosgorsud-torrent[собачка]yandex.ru
 Вход
ppkBB3cker v.2 © 2008-2014 @ PPK
[ Time : 0.021s | 16 Queries | GZIP : On ]

Торрент трекер RUTOR.IN, Не можете зайти на rutor.org? Какой новый адрес рутор? Какое зеркало рутор? Не работает rutor.org и зеркала? Тогда наш торрент специально для вас. Rutor.in неофициальное зеркало rutor. В случае если у Вас заблокирован rutor или вдруг Вы не можете на него зайти, то Вы без труда сможете скачать бесплатно и без рекламы последние новинки кино, игр, сериалов и прочего у нас, на Rutor.in. Не нужно использовать прокси, чтобы зайти на рутор, достаточно воспользоваться нашим ресурсом. Все новые фильмы, игры, сериалы, книги и музыка за 2013 и 2014 годы через торрент бесплатно. Скачивайте фильмы в хорошем качестве, игры для пк, xbox, playstation без регистрации. У нас вы найдете новые Зарубежные сериалы и Русские сериалы 2013, 2014, 2015 годов. Оставайтесь с нами, качайте любимые фильмы, игры, сериалы, книги и музыку.