img image001 image001 image001 image001 image001 image001 image001 image001 image001 image001 image001 image001 image001 image001 image001

Planets Sun Sun Sun
Статистика раздачи
Автор: Nickolas3434 | Размер: 2.81 ГБ | Добавлен: 08 окт 2015
Раздают: 3009    Качают: 214
Скачать торрент
Скачать торрент
Описание торрента

СообщениеДобавлено: 08 окт 2015 

Информация о фильме
Название: Миньоны
Оригинальное название: Minions
Год выхода: 2015
Жанр: мультфильм, комедия, семейный
Режиссер: Кайл Балда, Пьер Соффин
В ролях: Сандра Буллок, Джон Хэмм, Майкл Китон, Эллисон Дженни, Стив Куган, Дженнифер Сондерс, Джеффри Раш, Стив Карелл, Пьер Соффин, Кэти Миксон
О фильме: Миньоны живут на планете на пару миллионов лет дольше нас. У них одна навязчивая идея — служить самой Гадкой личности из имеющихся в наличии. Динозавры, фараоны, Дракула, Наполеон — все они оказались недолговечны. И тогда миньоны рванули в Нью-Йорк. Их ждут деньги, власть, роковая суперзлодейка Скарлет Оверкилл и, конечно же, вкуснейшая «банана»! Во всяком случае, так им кажется.

Выпущено: США / Illumination Entertainment
Продолжительность: 01:30:53
Озвучивание: Дублированное [iTunes]
Файл
Формат: MKV
Качество: WEB-DL 720p
Видео: MPEG-4 AVC, 3959 kb/s, 1280x688
Аудио: AC3, 384 kb/s (6 ch)
Format : Matroska
Format version : Version 4 / Version 2
File size : 2.81 GiB
Duration : 1h 30mn
Overall bit rate : 4 431 Kbps
Encoded date : UTC 2015-10-07 18:11:43
Writing application : mkvmerge v6.9.1 ('Blue Panther') 64bit built on Apr 18 2014 18:23:38
Writing library : libebml v1.3.0 + libmatroska v1.4.1

Video
ID : 1
Format : AVC
Format/Info : Advanced Video Codec
Format profile : High@L3.1
Format settings, CABAC : No
Format settings, ReFrames : 2 frames
Codec ID : V_MPEG4/ISO/AVC
Duration : 1h 30mn
Bit rate : 3 959 Kbps
Width : 1 280 pixels
Height : 688 pixels
Display aspect ratio : 1.85:1
Frame rate mode : Constant
Frame rate : 23.976 fps
Color space : YUV
Chroma subsampling : 4:2:0
Bit depth : 8 bits
Scan type : Progressive
Bits/(Pixel*Frame) : 0.188
Stream size : 2.51 GiB (89%)
Language : English
Default : Yes
Forced : No
Color range : Limited
Color primaries : BT.709
Transfer characteristics : BT.709
Matrix coefficients : BT.709

Audio
ID : 2
Format : AC-3
Format/Info : Audio Coding 3
Mode extension : CM (complete main)
Format settings, Endianness : Big
Codec ID : A_AC3
Duration : 1h 30mn
Bit rate mode : Constant
Bit rate : 384 Kbps
Channel(s) : 6 channels
Channel positions : Front: L C R, Side: L R, LFE
Sampling rate : 48.0 KHz
Bit depth : 16 bits
Compression mode : Lossy
Stream size : 250 MiB (9%)
Language : Russian
Default : Yes
Forced : No

Menu
00:00:00.000 : en:глава 1
00:05:41.000 : en:глава 2
00:11:34.000 : en:глава 3
00:16:57.000 : en:глава 4
00:22:30.000 : en:глава 5
00:27:00.000 : en:глава 6
00:32:56.000 : en:глава 7
00:37:30.000 : en:глава 8
00:41:00.000 : en:глава 9
00:45:31.000 : en:глава 10
00:49:25.000 : en:глава 11
00:53:45.000 : en:глава 12
00:57:06.000 : en:глава 13
01:01:38.000 : en:глава 14
01:05:56.000 : en:глава 15
01:07:57.000 : en:глава 16
01:11:19.000 : en:глава 17
01:15:34.000 : en:глава 18
01:21:14.000 : en:глава 19
01:28:26.000 : en:глава 20





   Похожие торренты   Торрент   Размер 
В этой теме нет новых непрочитанных сообщений. Миньоны / Minions (2015) BDRip 720p от Leonardo | iTunes

618 | 49

3.23 ГБ

В этой теме нет новых непрочитанных сообщений. Миньоны / Minions (2015) BDRip 720p от R.G. HD-Films | iTunes | 60 fps

412 | 71

5.32 ГБ

В этой теме нет новых непрочитанных сообщений. Миньоны / Minions (2015) BDRip 720p от Leonardo | iPad | iTunes

992 | 131

3.08 ГБ

В этой теме нет новых непрочитанных сообщений. Миньоны / Minions (2015) Blu-Ray | iTunes

48 | 39

38.77 ГБ

В этой теме нет новых непрочитанных сообщений. Миньоны / Minions (2015) WEB-DL 1080p | iTunes

1379 | 86

8.1 ГБ

В этой теме нет новых непрочитанных сообщений. Миньоны / Minions (2015) WEB-DLRip-AVC | iTunes

892 | 17

1.56 ГБ

В этой теме нет новых непрочитанных сообщений. Миньоны / Minions (2015) WEB-DLRip | iTunes

4852 | 229

1.37 ГБ




Вы не можете начинать темы
Вы не можете отвечать на сообщения
Вы не можете редактировать свои сообщения
Вы не можете удалять свои сообщения
Вы не можете добавлять вложения

Перейти:  
Для Мосгорсуда, Роскомнадзора и рекламодателей: mosgorsud-torrent[собачка]yandex.ru
 Вход
ppkBB3cker v.2 © 2008-2014 @ PPK
[ Time : 0.040s | 15 Queries | GZIP : Off ]

Торрент трекер RUTOR.IN, Не можете зайти на rutor.org? Какой новый адрес рутор? Какое зеркало рутор? Не работает rutor.org и зеркала? Тогда наш торрент специально для вас. Rutor.in неофициальное зеркало rutor. В случае если у Вас заблокирован rutor или вдруг Вы не можете на него зайти, то Вы без труда сможете скачать бесплатно и без рекламы последние новинки кино, игр, сериалов и прочего у нас, на Rutor.in. Не нужно использовать прокси, чтобы зайти на рутор, достаточно воспользоваться нашим ресурсом. Все новые фильмы, игры, сериалы, книги и музыка за 2013 и 2014 годы через торрент бесплатно. Скачивайте фильмы в хорошем качестве, игры для пк, xbox, playstation без регистрации. У нас вы найдете новые Зарубежные сериалы и Русские сериалы 2013, 2014, 2015 годов. Оставайтесь с нами, качайте любимые фильмы, игры, сериалы, книги и музыку.