img image001 image001 image001 image001 image001 image001 image001 image001 image001 image001 image001 image001 image001 image001 image001

Planets Sun Sun Sun
Статистика раздачи
Автор: Nickolas3434 | Размер: 3.41 ГБ | Добавлен: 08 окт 2015
Раздают: 2379    Качают: 224
Скачать торрент
Скачать торрент
Описание торрента

СообщениеДобавлено: 08 окт 2015 



Информация о фильме
Название: Миньоны
Оригинальное название: Minions
Год выхода: 2015
Жанр: мультфильм, комедия, семейный
Режиссер: Кайл Балда, Пьер Соффин
В ролях: Сандра Буллок, Джон Хэмм, Майкл Китон, Эллисон Дженни, Стив Куган, Дженнифер Сондерс, Джеффри Раш, Стив Карелл, Пьер Коффан, Кэти Миксон

О фильме:
Миньоны живут на планете на пару миллионов лет дольше нас. У них одна навязчивая идея - служить самой Гадкой личности из имеющихся в наличии. Динозавры, фараоны, Дракула, Наполеон - все они оказались недолговечны. И тогда миньоны рванули в Нью-Йорк. Их ждут деньги, власть, роковая суперзлодейка Скарлет Оверкилл и, конечно же, вкуснейшая «банана»! Во всяком случае, так им кажется.



Страна: США
Студия: Illumination Entertainment
Продолжительность: 01:30:53
Перевод: Профессиональный (дублированный) iTunes

Файл
Формат: Matroska
Видео: 1916x1032 at 23.976 fps, MPEG-4 AVC, ~4800 kbps avg
Аудио: Russian: 48 kHz, AC3, 3/2 (L,C,R,l,r) + LFE ch, ~384.00 kbps avg |Дубляж, iTunes|
Субтитры: None

Общее
Уникальный идентификатор : 201502093949923991072451337100848832691 (0x9797E443CBD7DBD981B9A204568CA0B3)
Полное имя : M1H10Hy.2015.D.WEB-DL.1080p.mkv
Формат : Matroska
Версия формата : Version 4 / Version 2
Размер файла : 3,41 Гбайт
Продолжительность : 1 ч. 30 м.
Общий поток : 5371 Кбит/сек
Дата кодирования : UTC 2015-10-07 18:13:58
Программа кодирования : mkvmerge v6.9.1 ('Blue Panther') 64bit built on Apr 18 2014 18:23:38
Библиотека кодирования : libebml v1.3.0 + libmatroska v1.4.1

Видео
Идентификатор : 1
Формат : AVC
Формат/Информация : Advanced Video Codec
Профиль формата : High@L4
Параметр CABAC формата : Да
Параметр ReFrames формата : 4 кадра
Идентификатор кодека : V_MPEG4/ISO/AVC
Продолжительность : 1 ч. 30 м.
Битрейт : 4880 Кбит/сек
Ширина : 1916 пикселей
Высота : 1032 пикселя
Соотношение сторон : 1,85:1
Режим частоты кадров : Постоянный
Частота кадров : 23,976 кадра/сек
Цветовое пространство : YUV
Субдискретизация насыщенности : 4:2:0
Битовая глубина : 8 бит
Тип развёртки : Прогрессивная
Бит/(Пиксели*Кадры) : 0.103
Размер потока : 3,10 Гбайт (91%)
Язык : English
Default : Да
Forced : Нет
Цветовой диапазон : Limited
Основные цвета : BT.709
Характеристики трансфера : BT.709
Коэффициенты матрицы : BT.709

Аудио
Идентификатор : 2
Формат : AC-3
Формат/Информация : Audio Coding 3
Расширение режима : CM (complete main)
Параметр Endianness формата : Big
Идентификатор кодека : A_AC3
Продолжительность : 1 ч. 30 м.
Вид битрейта : Постоянный
Битрейт : 384 Кбит/сек
Каналы : 6 каналов
Расположение каналов : Front: L C R, Side: L R, LFE
Частота : 48,0 КГц
Метод сжатия : С потерями
Размер потока : 250 Мбайт (7%)
Язык : Russian
Default : Да
Forced : Нет

Меню
00:00:00.000 : en:глава 1
00:05:41.000 : en:глава 2
00:11:34.000 : en:глава 3
00:16:57.000 : en:глава 4
00:22:30.000 : en:глава 5
00:27:00.000 : en:глава 6
00:32:56.000 : en:глава 7
00:37:30.000 : en:глава 8
00:41:00.000 : en:глава 9
00:45:31.000 : en:глава 10
00:49:25.000 : en:глава 11
00:53:45.000 : en:глава 12
00:57:06.000 : en:глава 13
01:01:38.000 : en:глава 14
01:05:56.000 : en:глава 15
01:07:57.000 : en:глава 16
01:11:19.000 : en:глава 17
01:15:34.000 : en:глава 18
01:21:14.000 : en:глава 19
01:28:26.000 : en:глава 20




   Похожие торренты   Торрент   Размер 
В этой теме нет новых непрочитанных сообщений. Миньоны / Minions (2015) WEB-DL 1080p | iTunes

1379 | 86

8.1 ГБ

В этой теме нет новых непрочитанных сообщений. Миньоны / Minions (2015) BDRip 1080p от Ash61 | 3D-Video | halfOU | iTunes

2012 | 116

10.72 ГБ

В этой теме нет новых непрочитанных сообщений. Миньоны / Minions (2015) Blu-Ray | iTunes

48 | 39

38.77 ГБ

В этой теме нет новых непрочитанных сообщений. Миньоны / Minions (2015) BDRip-AVC | iTunes

203 | 18

825.09 МБ

В этой теме нет новых непрочитанных сообщений. Миньоны / Minions (2015) WEB-DLRip-AVC | iTunes

892 | 17

1.56 ГБ

В этой теме нет новых непрочитанных сообщений. Миньоны / Minions (2015) HDRip | КПК | iTunes

88 | 8

418.84 МБ

В этой теме нет новых непрочитанных сообщений. Миньоны / Minions (2015) BDRip-AVC | iTunes

1400 | 46

2.12 ГБ




Вы не можете начинать темы
Вы не можете отвечать на сообщения
Вы не можете редактировать свои сообщения
Вы не можете удалять свои сообщения
Вы не можете добавлять вложения

Перейти:  
Для Мосгорсуда, Роскомнадзора и рекламодателей: mosgorsud-torrent[собачка]yandex.ru
 Вход
ppkBB3cker v.2 © 2008-2014 @ PPK
[ Time : 0.063s | 15 Queries | GZIP : Off ]

Торрент трекер RUTOR.IN, Не можете зайти на rutor.org? Какой новый адрес рутор? Какое зеркало рутор? Не работает rutor.org и зеркала? Тогда наш торрент специально для вас. Rutor.in неофициальное зеркало rutor. В случае если у Вас заблокирован rutor или вдруг Вы не можете на него зайти, то Вы без труда сможете скачать бесплатно и без рекламы последние новинки кино, игр, сериалов и прочего у нас, на Rutor.in. Не нужно использовать прокси, чтобы зайти на рутор, достаточно воспользоваться нашим ресурсом. Все новые фильмы, игры, сериалы, книги и музыка за 2013 и 2014 годы через торрент бесплатно. Скачивайте фильмы в хорошем качестве, игры для пк, xbox, playstation без регистрации. У нас вы найдете новые Зарубежные сериалы и Русские сериалы 2013, 2014, 2015 годов. Оставайтесь с нами, качайте любимые фильмы, игры, сериалы, книги и музыку.
cron