img image001 image001 image001 image001 image001 image001 image001 image001 image001 image001 image001 image001 image001 image001 image001

Planets Sun Sun Sun
Статистика раздачи
Автор: Nickolas3434 | Размер: 1.62 ГБ | Добавлен: 15 окт 2015
Раздают: 259    Качают: 15
Скачать торрент
Скачать торрент
Описание торрента

СообщениеДобавлено: 15 окт 2015 


Информация о фильме
Название: Бумажки
Год выхода: 2015
Жанр: мультфильм, комедия
Режиссер: Алексей Миронов, Артур Толстобров, Кирилл Кравченко
В ролях: Андрей Рожков
О фильме:
Анимационный сериал рассказывает о приключениях бумажных героев — лося по имени Аристотель и дятла по имени Тюк-тюк — в Бумажной стране, где все сделано только из бумаги, картона и канцелярских атрибутов (скотч, скрепки и т. д.). Каждая серия является отдельным увлекательным приключением, которое разворачивается вокруг новой поделки из бумаги. Приключение перемежается вставками «для умелых рук» (по одной на серию), из которых зрители узнают как из бумаги и картона при помощи ножниц и клея можно самому сделать бумажную поделку или нового персонажа. Таким образом, зритель вовлекается в своеобразную игру, предполагающую творчество и развитие многих полезных навыков, отвлекающих детей от увлечения компьютером.

Страна: Россия
Студия: студия Паровоз
Продолжительность: ~00:05:00 серия
Перевод: Не требуется
Файл
Кодек: XviD / AC3
Качество: SATRip
Видео: MPEG4, XviD, 720x400 (16:9), 25.000 fps, 1 700 Kbps (0.236 bit/pixel)
Звук: AC-3, 48.0 KHz, 2 ch, 192 Kbps, CBR
General
Complete name : 01. Заяц или Кот.avi
Format : AVI
Format/Info : Audio Video Interleave
File size : 74.8 MiB
Duration : 5mn 29s
Overall bit rate : 1 902 Kbps
Director : SATRip by Thunder
Writing application : VirtualDubMod 1.5.10.3 | www.virtualdub-fr.org || (build 2550/release)
Original source form/Name : Cartoon
Video
ID : 0
Format : MPEG-4 Visual
Format profile : Advanced Simple@L5
Format settings, BVOP : 1
Format settings, QPel : No
Format settings, GMC : No warppoints
Format settings, Matrix : Default (H.263)
Codec ID : XVID
Codec ID/Hint : XviD
Duration : 5mn 29s
Bit rate : 1 700 Kbps
Width : 720 pixels
Height : 400 pixels
Display aspect ratio : 16:9
Frame rate : 25.000 fps
Color space : YUV
Chroma subsampling : 4:2:0
Bit depth : 8 bits
Scan type : Progressive
Compression mode : Lossy
Bits/(Pixel*Frame) : 0.236
Stream size : 66.8 MiB (89%)
Writing library : XviD 1.2.1 (UTC 2008-12-04)
Audio
ID : 1
Format : AC-3
Format/Info : Audio Coding 3
Mode extension : CM (complete main)
Format settings, Endianness : Big
Codec ID : 2000
Duration : 5mn 29s
Bit rate mode : Constant
Bit rate : 192 Kbps
Channel(s) : 2 channels
Channel positions : Front: L R
Sampling rate : 48.0 KHz
Bit depth : 16 bits
Compression mode : Lossy
Stream size : 7.55 MiB (10%)
Alignment : Split accross interleaves
Interleave, duration : 40 ms (1.00 video frame)
Interleave, preload duration : 500 ms



   Похожие торренты   Торрент   Размер 
В этой теме нет новых непрочитанных сообщений. Бумажки [01-22] (2015) SATRip

309 | 57

2.28 ГБ

В этой теме нет новых непрочитанных сообщений. Бумажки [01-31] (2015) WEBRip от -merci-

33 | 8

2.15 ГБ

В этой теме нет новых непрочитанных сообщений. Бумажки [01-34] (2015) WEB-DLRip от ExKinoRay

67 | 21

2.35 ГБ

В этой теме нет новых непрочитанных сообщений. Бумажки [01-32] (2015) WEB-DLRip от -merci-

95 | 5

2.22 ГБ

В этой теме нет новых непрочитанных сообщений. Бумажки [01-32] (2015) WEB-DLRip 720p от -merci-

265 | 49

2.12 ГБ

В этой теме нет новых непрочитанных сообщений. Бумажки [01-31] (2015) WEBRip 720p от -merci-

68 | 25

2.05 ГБ

В этой теме нет новых непрочитанных сообщений. Бумажки [01-34] (2015) WEB-DLRip 720p от ExKinoRay

100 | 16

2.24 ГБ




Вы не можете начинать темы
Вы не можете отвечать на сообщения
Вы не можете редактировать свои сообщения
Вы не можете удалять свои сообщения
Вы не можете добавлять вложения

Перейти:  
Для Мосгорсуда, Роскомнадзора и рекламодателей: mosgorsud-torrent[собачка]yandex.ru
 Вход
ppkBB3cker v.2 © 2008-2014 @ PPK
[ Time : 0.022s | 14 Queries | GZIP : On ]

Торрент трекер RUTOR.IN, Не можете зайти на rutor.org? Какой новый адрес рутор? Какое зеркало рутор? Не работает rutor.org и зеркала? Тогда наш торрент специально для вас. Rutor.in неофициальное зеркало rutor. В случае если у Вас заблокирован rutor или вдруг Вы не можете на него зайти, то Вы без труда сможете скачать бесплатно и без рекламы последние новинки кино, игр, сериалов и прочего у нас, на Rutor.in. Не нужно использовать прокси, чтобы зайти на рутор, достаточно воспользоваться нашим ресурсом. Все новые фильмы, игры, сериалы, книги и музыка за 2013 и 2014 годы через торрент бесплатно. Скачивайте фильмы в хорошем качестве, игры для пк, xbox, playstation без регистрации. У нас вы найдете новые Зарубежные сериалы и Русские сериалы 2013, 2014, 2015 годов. Оставайтесь с нами, качайте любимые фильмы, игры, сериалы, книги и музыку.