img image001 image001 image001 image001 image001 image001 image001 image001 image001 image001 image001 image001 image001 image001 image001

Planets Sun Sun Sun
Статистика раздачи
Автор: Nickolas3434 | Размер: 7.76 ГБ | Добавлен: 16 окт 2015
Раздают: 97    Качают: 17
Скачать торрент
Скачать торрент
Описание торрента

СообщениеДобавлено: 16 окт 2015 

Название: Земля до начала времен
Оригинальное название: The Land Before Time
Год выпуска: 1988
Жанр: Приключения, драма, мелодрама, семейный, детский, полнометражный, динозавры
Выпущено: США, Ирландия, Amblin Entertainment, Lucasfilm Ltd., Sullivan Bluth Studios, U-Drive Productions, Universal Pictures
Режиссер: Дон Блат
В ролях: Джудит Барси, Пэт Хингл, Гэбриел Дэймон, Хелен Шейвер, Билл Эрвин, Берк Бирнс, Кендес Хатсон, Уилл Райан, Дайана Росс
Перевод: Дублировавнный
О фильме: Было время, когда нога человека еще не ступала на Землю. То было время извергающихся вулканов, громадных землетрясений и ужасных катаклизмов. Наша планета тогда была населена удивительными и странными существами. Герой этого мультика, очаровательный бронтозаврик Крошки-Ножки, отправился на поиски легендарной Великой Долины, где по слухам можно неплохо подкрепиться. По пути он прихватил с собой в путешествие еще четырех малышей-динозавриков. В дороге эту пеструю компанию поджидают удивительные и опасные приключения.

Качество: BDRip 720p
Контейнер (Расширение): MKV
Видео: 1280x692, 15060 Кбит/сек, 23,976 кадр/сек, 0,709 Бит/[Пиксели*Кадры]
Аудио №1: русский / DTS / 2.0 / 48 kHz / 448 kbps / 16 bit |Дублированный|
Аудио №4: английский / AC3 / 5.1 / 48 kHz / 640 kbps / 16 bit
Навигация по главам(Чаптеры): есть
Автор рипа: Сообщество:

Format : Matroska
Format version : Version 2
File size : 7.76 GiB
Duration : 1h 8mn
Overall bit rate : 16.1 Mbps
Movie name : The Land Before Time.(1988).BDRip.720p.[denis100]
Encoded date : UTC 2015-10-14 15:54:13
Writing application : mkvmerge v5.8.0 ('No Sleep / Pillow') built on Sep 2 2012 15:37:04
Writing library : libebml v1.2.3 + libmatroska v1.3.0
Video
ID : 1
Format : AVC
Format/Info : Advanced Video Codec
Format profile : High@L4.1
Format settings, CABAC : Yes
Format settings, ReFrames : 9 frames
Muxing mode : Header stripping
Codec ID : V_MPEG4/ISO/AVC
Duration : 1h 8mn
Bit rate : 15.1 Mbps
Width : 1 280 pixels
Height : 692 pixels
Display aspect ratio : 1.85:1
Frame rate mode : Constant
Frame rate : 23.976 fps
Color space : YUV
Chroma subsampling : 4:2:0
Bit depth : 8 bits
Scan type : Progressive
Bits/(Pixel*Frame) : 0.709
Stream size : 7.08 GiB (91%)
Title : The Land Before Time.(1988).BDRip.720p.[denis100]
Writing library : x264 core 148 r2597 e86f3a1
Encoding settings : cabac=1 / ref=9 / deblock=1:0:0 / analyse=0x3:0x133 / me=umh / subme=11 / psy=1 / psy_rd=1.00:0.15 / mixed_ref=1 / me_range=48 / chroma_me=1 / trellis=2 / 8x8dct=1 / cqm=0 / deadzone=21,11 / fast_pskip=0 / chroma_qp_offset=-3 / threads=6 / lookahead_threads=1 / sliced_threads=0 / nr=0 / decimate=1 / interlaced=0 / bluray_compat=0 / constrained_intra=0 / bframes=14 / b_pyramid=2 / b_adapt=2 / b_bias=0 / direct=3 / weightb=1 / open_gop=0 / weightp=2 / keyint=240 / keyint_min=23 / scenecut=40 / intra_refresh=0 / rc=2pass / mbtree=0 / bitrate=15060 / ratetol=1.0 / qcomp=0.60 / qpmin=0 / qpmax=69 / qpstep=4 / cplxblur=20.0 / qblur=0.5 / ip_ratio=1.40 / pb_ratio=1.30 / aq=1:1.00
Language : English
Default : Yes
Forced : No
Audio #1
ID : 2
Format : DTS
Format/Info : Digital Theater Systems
Mode : 16
Format settings, Endianness : Big
Muxing mode : Header stripping
Codec ID : A_DTS
Duration : 1h 8mn
Bit rate mode : Constant
Bit rate : 447 Kbps
Channel(s) : 2 channels
Channel positions : Front: L R
Sampling rate : 48.0 KHz
Bit depth : 24 bits
Compression mode : Lossy
Stream size : 220 MiB (3%)
Title : Дублированный
Language : Russian
Default : Yes
Forced : No
Audio #2
ID : 3
Format : AC-3
Format/Info : Audio Coding 3
Mode extension : CM (complete main)
Format settings, Endianness : Big
Muxing mode : Header stripping
Codec ID : A_AC3
Duration : 1h 8mn
Bit rate mode : Constant
Bit rate : 640 Kbps
Channel(s) : 6 channels
Channel positions : Front: L C R, Side: L R, LFE
Sampling rate : 48.0 KHz
Compression mode : Lossy
Stream size : 315 MiB (4%)
Language : English
Default : No
Forced : No
Text #1
ID : 4
Format : UTF-8
Codec ID : S_TEXT/UTF8
Codec ID/Info : UTF-8 Plain Text
Language : Russian
Default : No
Forced : No
Text #2
ID : 5
Format : UTF-8
Codec ID : S_TEXT/UTF8
Codec ID/Info : UTF-8 Plain Text
Language : English
Default : No
Forced : No
Menu
00:00:00.000 : en:Chapter 01
00:05:05.305 : en:Chapter 02
00:10:16.866 : en:Chapter 03
00:12:53.856 : en:Chapter 04
00:16:11.470 : en:Chapter 05
00:18:13.967 : en:Chapter 06
00:27:12.964 : en:Chapter 07
00:29:23.178 : en:Chapter 08
00:30:47.303 : en:Chapter 09
00:35:49.147 : en:Chapter 10
00:37:23.032 : en:Chapter 11
00:45:35.190 : en:Chapter 12
00:46:54.520 : en:Chapter 13
00:50:14.636 : en:Chapter 14
00:54:30.892 : en:Chapter 15
00:58:19.370 : en:Chapter 16
x264 [info]: frame I:496 Avg QP:19.98 size:198258
x264 [info]: frame P:19726 Avg QP:22.02 size:106448
x264 [info]: frame B:78778 Avg QP:24.22 size: 70702
x264 [info]: consecutive B-frames: 1.4% 1.1% 7.9% 12.5% 13.7% 53.8% 2.0% 0.9% 1.0% 0.5% 0.9% 3.7% 0.2% 0.2% 0.1%



   Похожие торренты   Торрент   Размер 
В этой теме нет новых непрочитанных сообщений. Земля до начала времен / The Land Before Time (1988) BDRip-AVC | D

29 | 2

1.93 ГБ

В этой теме нет новых непрочитанных сообщений. Земля до начала времен / The Land Before Time (1988) BDRip-AVC

27 | 3

2.14 ГБ

В этой теме нет новых непрочитанных сообщений. Земля до начала времен / The Land Before Time (1988) BDRip от HQCLUB

136 | 34

1.45 ГБ

В этой теме нет новых непрочитанных сообщений. Земля до начала времен / The Land Before Time (1988) DVD5

30 | 6

3.87 ГБ

В этой теме нет новых непрочитанных сообщений. Земля до начала времен / The Land Before Time (1988) HDTVRip от Киномагия

152 | 11

1.17 ГБ

В этой теме нет новых непрочитанных сообщений. Земля до начала времен / The Land Before Time [01-13] (1988-2007) DVDRip

124 | 29

17.83 ГБ

В этой теме нет новых непрочитанных сообщений. Земля до начала времен / The Land Before Time (1988) HDTVRip-AVC от MediaClub

114 | 18

2.5 ГБ




Вы не можете начинать темы
Вы не можете отвечать на сообщения
Вы не можете редактировать свои сообщения
Вы не можете удалять свои сообщения
Вы не можете добавлять вложения

Перейти:  
Для Мосгорсуда, Роскомнадзора и рекламодателей: mosgorsud-torrent[собачка]yandex.ru
 Вход
ppkBB3cker v.2 © 2008-2014 @ PPK
[ Time : 0.027s | 15 Queries | GZIP : Off ]

Торрент трекер RUTOR.IN, Не можете зайти на rutor.org? Какой новый адрес рутор? Какое зеркало рутор? Не работает rutor.org и зеркала? Тогда наш торрент специально для вас. Rutor.in неофициальное зеркало rutor. В случае если у Вас заблокирован rutor или вдруг Вы не можете на него зайти, то Вы без труда сможете скачать бесплатно и без рекламы последние новинки кино, игр, сериалов и прочего у нас, на Rutor.in. Не нужно использовать прокси, чтобы зайти на рутор, достаточно воспользоваться нашим ресурсом. Все новые фильмы, игры, сериалы, книги и музыка за 2013 и 2014 годы через торрент бесплатно. Скачивайте фильмы в хорошем качестве, игры для пк, xbox, playstation без регистрации. У нас вы найдете новые Зарубежные сериалы и Русские сериалы 2013, 2014, 2015 годов. Оставайтесь с нами, качайте любимые фильмы, игры, сериалы, книги и музыку.