img image001 image001 image001 image001 image001 image001 image001 image001 image001 image001 image001 image001 image001 image001 image001

Planets Sun Sun Sun
Статистика раздачи
Автор: Nickolas3434 | Размер: 744.67 МБ | Добавлен: 18 окт 2015
Раздают: 36    Качают: 12
Скачать торрент
Скачать торрент
Описание торрента

СообщениеДобавлено: 18 окт 2015 


Информация о фильме
Название: Паника в деревне
Оригинальное название: Panique au village
Страна: Бельгия, Люксембург, Франция
Год выхода: 2009
Жанр: мультфильм, фэнтези, комедия, приключения, семейный
Режиссер: Стефани Обье / Stéphane Aubier, Венсан Патар / Vincent Patar
В ролях: Стефани Обье, Жанна Балибар, Николя Бюиссе, Вероника Дюмон, Брюс Эллисон, Кристина Грюлуа, Фридерик Жаннен, Були Ланнерс, Брайан Лукке, Кристель Маи
О фильме: Приключения героев начинаются с благой идеи. Ковбой и Индеец решили подарить Лошади «вещь», сделанную своими руками. Идея оказалась не самой лучшей: нежданный подарок разрушил дом Лошади.

Продолжительность: 01:16:53
Перевод: Авторский (одноголосый закадровый) А. Матвеев
Субтитры: отсутствуют
Файл
Формат: AVI
Качество: BDRip [by rs.bandito]
Видео: 640x272 (2.35:1), 23.976 fps, XviD build 73 ~1217 kbps avg, 0.292 bit/pixel
Аудио : 48 kHz, MPEG Layer 3, 2 ch, ~128.00 kbps avg
Исходник: BDRemux 1080p | Автор рипа: domin8 | Семпл
General
Complete name : D:Panique au village�2Panique_au_village_BDRip_AVO.avi
Format : AVI
Format/Info : Audio Video Interleave
File size : 745 MiB
Duration : 1h 16mn
Overall bit rate : 1 354 Kbps
Movie name : Panique au village [ripped by domin8]
Genre : Child's
Writing application : VirtualDubMod 1.5.10.3 | www.virtualdub-fr.org || (build 2550/release)
Original source form/Name : Cartoon
Video #0
ID : 0
Format : MPEG-4 Visual
Format profile : Advanced Simple@L5
Format settings, BVOP : Yes
Format settings, QPel : No
Format settings, GMC : No warppoints
Format settings, Matrix : Default (H.263)
Codec ID : XVID
Codec ID/Hint : XviD
Duration : 1h 16mn
Bit rate : 1 217 Kbps
Width : 640 pixels
Height : 272 pixels
Display aspect ratio : 2.35:1
Frame rate : 23.976 fps
Color space : YUV
Chroma subsampling : 4:2:0
Bit depth : 8 bits
Scan type : Progressive
Bits/(Pixel*Frame) : 0.292
Stream size : 669 MiB (90%)
Writing library : XviD 73
Audio #1
ID : 1
Format : MPEG Audio
Format version : Version 1
Format profile : Layer 3
Mode : Joint stereo
Codec ID : 55
Codec ID/Hint : MP3
Duration : 1h 16mn
Bit rate mode : Constant
Bit rate : 128 Kbps
Channel(s) : 2 channels
Sampling rate : 48.0 KHz
Stream size : 70.4 MiB (9%)
Alignment : Aligned on interleaves
Interleave, duration : 42 ms (1.00 video frame)
Interleave, preload duration : 504 ms
Writing library : LAME3.99r
Encoding settings : -m j -V 4 -q 0 -lowpass 17 -b 128






   Похожие торренты   Торрент   Размер 
В этой теме нет новых непрочитанных сообщений. Паника в деревне / Panique au village (2009) BDRip от rs.bandito | A

67 | 20

1.48 ГБ

В этой теме нет новых непрочитанных сообщений. Паника в деревне / Panique au village (2009) BDRip от New-Team | субтитры

9 | 2

890.33 МБ

В этой теме нет новых непрочитанных сообщений. Паника в деревне / Panique au village (2009) BDRip 720p от New-Team | субтитры

11 | 8

2.33 ГБ

В этой теме нет новых непрочитанных сообщений. Паника в деревне / Panique au village (2009) BDRemux 1080p от HDCLUB и New-Team | субтитры

7 | 3

6.96 ГБ

В этой теме нет новых непрочитанных сообщений. Паника в деревне / Panique au village (2009) BDRemux 1080p от HDCLUB и New-Team | субтитры

3 | 3

8.09 ГБ

В этой теме нет новых непрочитанных сообщений. Месяц в деревне / A Month in the Country (1987) BDRip | L

26 | 3

1.46 ГБ

В этой теме нет новых непрочитанных сообщений. Меню / Feast (2014) BDRip от rs.bandito | D

117 | 4

129.64 МБ




Вы не можете начинать темы
Вы не можете отвечать на сообщения
Вы не можете редактировать свои сообщения
Вы не можете удалять свои сообщения
Вы не можете добавлять вложения

Перейти:  
Для Мосгорсуда, Роскомнадзора и рекламодателей: mosgorsud-torrent[собачка]yandex.ru
 Вход
ppkBB3cker v.2 © 2008-2014 @ PPK
[ Time : 0.031s | 15 Queries | GZIP : Off ]

Торрент трекер RUTOR.IN, Не можете зайти на rutor.org? Какой новый адрес рутор? Какое зеркало рутор? Не работает rutor.org и зеркала? Тогда наш торрент специально для вас. Rutor.in неофициальное зеркало rutor. В случае если у Вас заблокирован rutor или вдруг Вы не можете на него зайти, то Вы без труда сможете скачать бесплатно и без рекламы последние новинки кино, игр, сериалов и прочего у нас, на Rutor.in. Не нужно использовать прокси, чтобы зайти на рутор, достаточно воспользоваться нашим ресурсом. Все новые фильмы, игры, сериалы, книги и музыка за 2013 и 2014 годы через торрент бесплатно. Скачивайте фильмы в хорошем качестве, игры для пк, xbox, playstation без регистрации. У нас вы найдете новые Зарубежные сериалы и Русские сериалы 2013, 2014, 2015 годов. Оставайтесь с нами, качайте любимые фильмы, игры, сериалы, книги и музыку.
cron