img image001 image001 image001 image001 image001 image001 image001 image001 image001 image001 image001 image001 image001 image001 image001

Planets Sun Sun Sun
Статистика раздачи
Автор: Nickolas3434 | Размер: 7.36 ГБ | Добавлен: 20 окт 2015
Раздают: 24    Качают: 18
Скачать торрент
Скачать торрент
Описание торрента

СообщениеДобавлено: 20 окт 2015 


Информация о фильме
Название: Жизнь и приключения Джунипер Ли
Оригинальное название: The Life and Times of Juniper Lee
Год выхода: 2005-2007
Жанр: мультфильм, комедия, приключения, семейный
Режиссер: Фрэнк Сквиллейс
В ролях: Лара Джилл Миллер, Александр Полински, Кэнди Мило, Коллин О’Шонесси, Кэт Сауси, Карлос Аласраки, Тара Стронг, С. Скотт Баллок, Ди Брэдли Бэйкер, Джефф Беннетт
О фильме:
Джунипер Ли живет в мире в котором живут магические существа. Их не могут видеть обычные люди. Ведь Джунипер Ли совсем не обычный человек она поддерживает равновесие между миром монстров и миров людей и еще у нее есть верный пес Монро который помогает ей бороться с монстрами.
Официальный сайт
Страна: США
Студия: Cartoon Network Studios
Продолжительность: ~ 00:22:00 серия
Перевод: Дублированный
Файл
Кодек: DivX / MP3
Качество: SATRip
Видео: MPEG4, DivX 5, 704x528 (4:3), 25.000 fps, 1 200 Kbps (0.129 bit/pixel)
Звук: MP3, 48.0 KHz, 2 ch, 128 Kbps, CBR
General
Complete name : 01 It's Your Party and I'll Whine If I Want To.avi
Format : AVI
Format/Info : Audio Video Interleave
File size : 210 MiB
Duration : 21mn 57s
Overall bit rate : 1 338 Kbps
Video
ID : 0
Format : MPEG-4 Visual
Format settings, BVOP : 1
Format settings, QPel : No
Format settings, GMC : No warppoints
Format settings, Matrix : Default (H.263)
Muxing mode : Packed bitstream
Codec ID : DX50
Codec ID/Hint : DivX 5
Duration : 21mn 57s
Bit rate : 1 200 Kbps
Width : 704 pixels
Height : 528 pixels
Display aspect ratio : 4:3
Frame rate : 25.000 fps
Color space : YUV
Chroma subsampling : 4:2:0
Bit depth : 8 bits
Scan type : Progressive
Compression mode : Lossy
Bits/(Pixel*Frame) : 0.129
Stream size : 188 MiB (90%)
Title : Video
Writing library : DivX 2991
Audio
ID : 1
Format : MPEG Audio
Format version : Version 1
Format profile : Layer 3
Codec ID : 55
Codec ID/Hint : MP3
Duration : 21mn 57s
Bit rate mode : Constant
Bit rate : 128 Kbps
Channel(s) : 2 channels
Sampling rate : 48.0 KHz
Compression mode : Lossy
Stream size : 20.1 MiB (10%)
Alignment : Split accross interleaves
Interleave, duration : 40 ms (1.00 video frame)
Interleave, preload duration : 500 ms
Title : Audio



   Похожие торренты   Торрент   Размер 
В этой теме нет новых непрочитанных сообщений. Жизнь и приключения Тима / The Life & Times of Tim [S02] (2010) DVDRip | 2x2

4 | 1

1.98 ГБ

В этой теме нет новых непрочитанных сообщений. Жизнь и приключения Тима / The Life & Times of Tim [S01] (2008) DVDRip

1 | 2

1.6 ГБ

В этой теме нет новых непрочитанных сообщений. Жизнь и времена судьи Роя Бина / The Life and Times of Judge Roy Bean (1972) DVDRip - Generalfilm

0 | 4

2.06 ГБ

В этой теме нет новых непрочитанных сообщений. Жизнь до рождения / Life Before Birth [1-4 из 4] (2005) SATRip

7 | 3

2.64 ГБ

В этой теме нет новых непрочитанных сообщений. Шенайя: Жизнь в восьми альбомах / Shania: A Life in Eight Albums (2005) SATRip

45 | 3

1.36 ГБ

В этой теме нет новых непрочитанных сообщений. Шенайя: Жизнь в восьми альбомах / Shania: A Life in Eight Albums (2005) SATRip

28 | 8

1.36 ГБ

В этой теме нет новых непрочитанных сообщений. Чернобыль, жизнь в смертельной зоне / Chernobyl, Life in the Dead Zone (2007) SATRip

62 | 10

659.73 МБ




Вы не можете начинать темы
Вы не можете отвечать на сообщения
Вы не можете редактировать свои сообщения
Вы не можете удалять свои сообщения
Вы не можете добавлять вложения

Перейти:  
Для Мосгорсуда, Роскомнадзора и рекламодателей: mosgorsud-torrent[собачка]yandex.ru
 Вход
ppkBB3cker v.2 © 2008-2014 @ PPK
[ Time : 0.022s | 15 Queries | GZIP : Off ]

Торрент трекер RUTOR.IN, Не можете зайти на rutor.org? Какой новый адрес рутор? Какое зеркало рутор? Не работает rutor.org и зеркала? Тогда наш торрент специально для вас. Rutor.in неофициальное зеркало rutor. В случае если у Вас заблокирован rutor или вдруг Вы не можете на него зайти, то Вы без труда сможете скачать бесплатно и без рекламы последние новинки кино, игр, сериалов и прочего у нас, на Rutor.in. Не нужно использовать прокси, чтобы зайти на рутор, достаточно воспользоваться нашим ресурсом. Все новые фильмы, игры, сериалы, книги и музыка за 2013 и 2014 годы через торрент бесплатно. Скачивайте фильмы в хорошем качестве, игры для пк, xbox, playstation без регистрации. У нас вы найдете новые Зарубежные сериалы и Русские сериалы 2013, 2014, 2015 годов. Оставайтесь с нами, качайте любимые фильмы, игры, сериалы, книги и музыку.