img image001 image001 image001 image001 image001 image001 image001 image001 image001 image001 image001 image001 image001 image001 image001

Planets Sun Sun Sun
Статистика раздачи
Автор: Nickolas3434 | Размер: 8.28 ГБ | Добавлен: 30 окт 2015
Раздают: 1083    Качают: 285
Скачать торрент
Скачать торрент
Описание торрента

СообщениеДобавлено: 30 окт 2015 


Информация о фильме
Название: Суперкрылья. Джетт и его друзья
Оригинальное название: Super Wings. Jett and his friends
Год выхода: 2015
Жанр: Мультсериал, познавательный, детский, приключения
Режиссер: Гул Хоон Юнг
О фильме:
Путешествуйте и изучайте страны мира вместе с персонажами мультсериала! Главный герой мультсериала — симпатичный самолетик Джетт. Он путешествует по миру, доставляя посылки детям. Иногда во время выполнения заданий Джетт сталкивается с трудностями, и на помощь ему приходят верные друзья, — команда бесстрашных трансформеров-самолётиков. В каждом эпизоде мультсериала герои отправляются в новую точку земного шара. Цель проекта — рассказать детям о культуре, традициях и языках различных стран и народов мира. Всего самолётики, а вместе с ними и маленькие телезрители, посетят 52 города в 45 государствах.
01. Правильный воздушный змей
02. Игра теней
03. Гонка на гондолах
04. Говайское приключение
05. Щенки для принцессы
06. По сахаре на санках
07. Свет, камера, мотор!
08. Проблемы с пузырями
09. Гонка со временем
10. Звёзды Монголии
11. Невероятная самба
12. Мальчик из пирамиды
13. Боязнь сцены
14. Музыкальная горилла
15. Цирковое представление
16. Бумажные рейнджеры
17. Вояж к викингам
18. Арктический побег
19. Рецепт победы
20. Погоня за призраком
21. Звезда эстрады
22. Пернатые друзья
23. Друзья по рисованию
24. Фиеста! Фиеста!
25. День чистоты
26. Семейный час
27. Скоростной путь
28. Сбежавший Рекс
29. Отряд «Зебра»
30. Беседы с животными
31. Парад пингвинов
32. Невероятный Мориц
33. Поездка в космос
34. Папа-пожарный
35. В поисках адресата
36. Сбежавшие цвета
37. Пиратская добыча
38. Юные пилоты
39. Похититель игрушек
40 Львиный танец
41. Друг из шахты
42. Снежный день
43. Колесо времени
44. Поезд отправляется!
45. Сырная гонка
46. Прогулка под дождём
47. Подводные друзья
48. Ямайские волны
49. Рыцарское приключение
50. Загадай желание!
51. Фермер Джетт
52. За дело!


Страна: USA, South Korea, China
Студия: FunnyFlux Entertainment, Little Airplane Productions
Продолжительность: ~ 00:12:00 серия
Перевод: Дублированный
Файл
Кодек: XviD / AC3
Качество: SATRip
Видео: MPEG4, XviD, 720x400 (16:9), 25.000 fps, 1 700 Kbps (0.236 bit/pixel)
Звук: AC-3, 48.0 KHz, 2 ch, 192 Kbps, CBR
General
Complete name : 01. Правильный воздушный змей.avi
Format : AVI
Format/Info : Audio Video Interleave
File size : 163 MiB
Duration : 11mn 57s
Overall bit rate : 1 902 Kbps
Director : SATRip by Thunder
Writing application : VirtualDubMod 1.5.10.3 | www.virtualdub-fr.org || (build 2550/release)
Original source form/Name : Cartoon
Video
ID : 0
Format : MPEG-4 Visual
Format profile : Advanced Simple@L5
Format settings, BVOP : 1
Format settings, QPel : No
Format settings, GMC : No warppoints
Format settings, Matrix : Default (H.263)
Codec ID : XVID
Codec ID/Hint : XviD
Duration : 11mn 57s
Bit rate : 1 700 Kbps
Width : 720 pixels
Height : 400 pixels
Display aspect ratio : 16:9
Frame rate : 25.000 fps
Color space : YUV
Chroma subsampling : 4:2:0
Bit depth : 8 bits
Scan type : Progressive
Compression mode : Lossy
Bits/(Pixel*Frame) : 0.236
Stream size : 145 MiB (89%)
Writing library : XviD 1.2.1 (UTC 2008-12-04)
Audio
ID : 1
Format : AC-3
Format/Info : Audio Coding 3
Mode extension : CM (complete main)
Format settings, Endianness : Big
Codec ID : 2000
Duration : 11mn 57s
Bit rate mode : Constant
Bit rate : 192 Kbps
Channel(s) : 2 channels
Channel positions : Front: L R
Sampling rate : 48.0 KHz
Compression mode : Lossy
Stream size : 16.4 MiB (10%)
Alignment : Split accross interleaves
Interleave, duration : 40 ms (1.00 video frame)
Interleave, preload duration : 500 ms



   Похожие торренты   Торрент   Размер 
В этой теме нет новых непрочитанных сообщений. СуперКрылья. Джетт и его друзья / Super Wings. Jett and his friends [01-14 из 52] (2015) WEB-DL 720p | D

12 | 1

2.81 ГБ

В этой теме нет новых непрочитанных сообщений. СуперКрылья. Джетт и его друзья / Super Wings. Jett and his friends [01-14 из 52] (2015) WEB-DL 720p | D

74 | 8

1.98 ГБ

В этой теме нет новых непрочитанных сообщений. СуперКрылья. Джетт и его друзья / Super Wings. Jett and his friends [01-14 из 52] (2015) WEB-DL 1080p | D

41 | 4

4.79 ГБ

В этой теме нет новых непрочитанных сообщений. СуперКрылья. Джетт и его друзья / Super Wings. Jett and his friends [01-14 из 52] (2015) WEB-DL 1080p | D

14 | 1

3.32 ГБ

В этой теме нет новых непрочитанных сообщений. СуперКрылья. Джетт и его друзья / Super Wings. Jett and his friends [01-14 из 52] (2015) WEB-DL 720p | D

6 | 1

2.25 ГБ

В этой теме нет новых непрочитанных сообщений. СуперКрылья. Джетт и его друзья / Super Wings. Jett and his friends [01-14 из 52] (2015) WEB-DL 1080p | D

5 | 3

3.79 ГБ

В этой теме нет новых непрочитанных сообщений. СуперКрылья. Джетт и его друзья / Super Wings. Jett and his friends [01-14 из 52] (2015) WEB-DL 1080p | D

23 | 3

2.79 ГБ




Вы не можете начинать темы
Вы не можете отвечать на сообщения
Вы не можете редактировать свои сообщения
Вы не можете удалять свои сообщения
Вы не можете добавлять вложения

Перейти:  
Для Мосгорсуда, Роскомнадзора и рекламодателей: mosgorsud-torrent[собачка]yandex.ru
 Вход
ppkBB3cker v.2 © 2008-2014 @ PPK
[ Time : 0.023s | 14 Queries | GZIP : On ]

Торрент трекер RUTOR.IN, Не можете зайти на rutor.org? Какой новый адрес рутор? Какое зеркало рутор? Не работает rutor.org и зеркала? Тогда наш торрент специально для вас. Rutor.in неофициальное зеркало rutor. В случае если у Вас заблокирован rutor или вдруг Вы не можете на него зайти, то Вы без труда сможете скачать бесплатно и без рекламы последние новинки кино, игр, сериалов и прочего у нас, на Rutor.in. Не нужно использовать прокси, чтобы зайти на рутор, достаточно воспользоваться нашим ресурсом. Все новые фильмы, игры, сериалы, книги и музыка за 2013 и 2014 годы через торрент бесплатно. Скачивайте фильмы в хорошем качестве, игры для пк, xbox, playstation без регистрации. У нас вы найдете новые Зарубежные сериалы и Русские сериалы 2013, 2014, 2015 годов. Оставайтесь с нами, качайте любимые фильмы, игры, сериалы, книги и музыку.