img image001 image001 image001 image001 image001 image001 image001 image001 image001 image001 image001 image001 image001 image001 image001

Planets Sun Sun Sun
Статистика раздачи
Автор: Nickolas3434 | Размер: 4.07 ГБ | Добавлен: 30 окт 2015
Раздают: 2112    Качают: 225
Скачать торрент
Скачать торрент
Описание торрента

СообщениеДобавлено: 30 окт 2015 


Информация о фильме
Название: Хранитель луны
Оригинальное название: Mune, le gardien de la lune
Год выхода: 2014
Жанр: Мультфильм, семейный, приключения
Режиссер: Александр Эбоян, Бенуа Филиппон
В ролях: Омар Си, Изиа Ижлен, Майкл Грегорио, Шафик Ахмад, Бенуа Аллемане, Шеннон Арчи, Федор Аткин, Джошуа Дж. Баллард, Дэмиен Буассо, Эммануэль Кюртиль
О фильме:
На диковинной планете, где смена дня и ночи осуществляется вручную, юного фавна Мьюна неожиданно избирают хранителем Луны. Но к своему ужасу, он почти сразу теряет ее! Воспользовавшись этим, царь подземного мира Некрос крадет и гасит Солнце. Теперь, чтобы спасти планету, Мьюн вместе с отважной девочкой из воска Глим и заносчивым Сохоном, хранителем Солнца, должны отправиться в удивительное и опасное путешествие.

Страна: Франция
Студия: Orange Studio, KinoLogy, Onyx Films
Продолжительность: 01:21:26
Перевод: Дублированный (BD RUS)
Файл
Кодек: MPEG-4 AVC
Качество: BDRip 1080p
Видео: 4870 Кбит/с, 1920x800, 25 кадр/с
Звук: Русский (AC3, 6 ch, 640 Кбит/с), (DTS, 6 ch, 1509 Кбит/с)
Рип от StarbirS
Аудио#1: Russian: AC3, 48 kHz, AC3, 3/2 (L,C,R,l,r) + LFE ch, ~640.00 kbps avg - Дублированный (BD RUS)
Аудио#2: Russian: DTS, 48 kHz, AC3, 3/2 (L,C,R,l,r) + LFE ch, ~1509.00 kbps avg - Дублированный (BD RUS)
x264 [info]: frame I:903 Avg QP:13.70 size:160131
x264 [info]: frame P:27934 Avg QP:15.67 size: 55442
x264 [info]: frame B:93338 Avg QP:17.96 size: 14645

Формат : Matroska
Версия формата : Version 2
Размер файла : 4,07 Гбайт
Продолжительность : 1 ч. 21 м.
Общий поток : 7162 Кбит/сек
Название фильма : Mune.le.gardien.de.la.lune.2014.x264.BDRip.1080p.Rus
Дата кодирования : UTC 2015-10-29 05:53:34
Программа кодирования : mkvmerge v7.9.0 ('Birds') 64bit
Библиотека кодирования : libebml v1.3.1 + libmatroska v1.4.2
Видео
Идентификатор : 1
Формат : AVC
Формат/Информация : Advanced Video Codec
Профиль формата : High@L4.1
Параметр CABAC формата : Да
Параметр ReFrames формата : 5 кадров
Идентификатор кодека : V_MPEG4/ISO/AVC
Продолжительность : 1 ч. 21 м.
Битрейт : 4870 Кбит/сек
Ширина : 1920 пикселей
Высота : 800 пикселей
Соотношение сторон : 2,40:1
Режим частоты кадров : Постоянный
Частота кадров : 25,000 кадров/сек
Цветовое пространство : YUV
Субдискретизация насыщенности : 4:2:0
Битовая глубина : 8 бит
Тип развёртки : Прогрессивная
Бит/(Пиксели*Кадры) : 0.127
Размер потока : 2,77 Гбайт (68%)
Заголовок : Mune.le.gardien.de.la.lune.2014.x264.BDRip.1080p.Rus.by.StarbirS
Библиотека кодирования : x264 core 148 r2638 7599210
Настройки программы : cabac=1 / ref=5 / deblock=1:-3:-3 / analyse=0x3:0x133 / me=umh / subme=11 / psy=1 / psy_rd=1.05:0.15 / mixed_ref=1 / me_range=48 / chroma_me=1 / trellis=2 / 8x8dct=1 / cqm=0 / deadzone=21,11 / fast_pskip=0 / chroma_qp_offset=-3 / threads=12 / lookahead_threads=2 / sliced_threads=0 / nr=0 / decimate=0 / interlaced=0 / bluray_compat=0 / constrained_intra=0 / bframes=9 / b_pyramid=2 / b_adapt=2 / b_bias=0 / direct=3 / weightb=1 / open_gop=1 / weightp=2 / keyint=250 / keyint_min=25 / scenecut=60 / intra_refresh=0 / rc=crf / mbtree=0 / crf=18.5 / qcomp=0.60 / qpmin=0 / qpmax=69 / qpstep=4 / ip_ratio=1.40 / pb_ratio=1.30 / aq=1:0.80
Язык : English
Default : Да
Forced : Нет
Аудио #1
Идентификатор : 2
Формат : AC-3
Формат/Информация : Audio Coding 3
Расширение режима : CM (complete main)
Параметр Endianness формата : Big
Идентификатор кодека : A_AC3
Продолжительность : 1 ч. 21 м.
Вид битрейта : Постоянный
Битрейт : 640 Кбит/сек
Каналы : 6 каналов
Расположение каналов : Front: L C R, Side: L R, LFE
Частота : 48,0 КГц
Метод сжатия : С потерями
Размер потока : 373 Мбайт (9%)
Заголовок : Дублированный (BD RUS)
Язык : Russian
Default : Да
Forced : Нет
Аудио #2
Идентификатор : 3
Формат : DTS
Формат/Информация : Digital Theater Systems
Режим : 16
Параметр Endianness формата : Big
Идентификатор кодека : A_DTS
Продолжительность : 1 ч. 21 м.
Вид битрейта : Постоянный
Битрейт : 1510 Кбит/сек
Каналы : 6 каналов
Расположение каналов : Front: L C R, Side: L R, LFE
Частота : 48,0 КГц
Битовая глубина : 24 бит
Метод сжатия : С потерями
Размер потока : 880 Мбайт (21%)
Заголовок : Дублированный (BD RUS)
Язык : Russian
Default : Нет
Forced : Нет
Меню
00:00:00.000 : en:00:00:00.000
00:05:54.160 : en:00:05:54.160
00:13:02.640 : en:00:13:02.640
00:17:54.560 : en:00:17:54.560
00:24:42.000 : en:00:24:42.000
00:30:02.960 : en:00:30:02.960
00:34:33.560 : en:00:34:33.560
00:42:25.960 : en:00:42:25.960
00:47:45.000 : en:00:47:45.000
00:53:42.760 : en:00:53:42.760
01:00:16.640 : en:01:00:16.640
01:09:48.000 : en:01:09:48.000





   Похожие торренты   Торрент   Размер 
В этой теме нет новых непрочитанных сообщений. Хранитель луны / Mune, le gardien de la lune (2014) BDRemux 1080p от ExKinoRay | ITA Transfer | Лицензия

132 | 68

20.68 ГБ

В этой теме нет новых непрочитанных сообщений. Хранитель Луны / Mune, le gardien de la lune (2014) BDRip 720p | Лицензия

8388 | 406

1.45 ГБ

В этой теме нет новых непрочитанных сообщений. Хранитель Луны / Mune, le gardien de la lune (2014) BDRip от HQCLUB | D | Лицензия

109 | 2

1.45 ГБ

В этой теме нет новых непрочитанных сообщений. Хранитель Луны / Mune, le gardien de la lune (2014) BDRip-AVC от ExKinoRay | Лицензия

703 | 74

1.79 ГБ

В этой теме нет новых непрочитанных сообщений. Хранитель Луны / Mune, le gardien de la lune (2014) BDRip-AVC от New-Team | Лицензия

219 | 43

743.31 МБ

В этой теме нет новых непрочитанных сообщений. Хранитель Луны / Mune, le gardien de la lune (2014) BDRip-AVC от New-Team | Лицензия

3425 | 303

1.45 ГБ

В этой теме нет новых непрочитанных сообщений. Хранитель луны / Mune, le gardien de la lune (2014) BDRip от Kaztorrents | КПК | ITA Transfer | Лицензия

70 | 5

390.08 МБ




Вы не можете начинать темы
Вы не можете отвечать на сообщения
Вы не можете редактировать свои сообщения
Вы не можете удалять свои сообщения
Вы не можете добавлять вложения

Перейти:  
Для Мосгорсуда, Роскомнадзора и рекламодателей: mosgorsud-torrent[собачка]yandex.ru
 Вход
ppkBB3cker v.2 © 2008-2014 @ PPK
[ Time : 0.023s | 14 Queries | GZIP : Off ]

Торрент трекер RUTOR.IN, Не можете зайти на rutor.org? Какой новый адрес рутор? Какое зеркало рутор? Не работает rutor.org и зеркала? Тогда наш торрент специально для вас. Rutor.in неофициальное зеркало rutor. В случае если у Вас заблокирован rutor или вдруг Вы не можете на него зайти, то Вы без труда сможете скачать бесплатно и без рекламы последние новинки кино, игр, сериалов и прочего у нас, на Rutor.in. Не нужно использовать прокси, чтобы зайти на рутор, достаточно воспользоваться нашим ресурсом. Все новые фильмы, игры, сериалы, книги и музыка за 2013 и 2014 годы через торрент бесплатно. Скачивайте фильмы в хорошем качестве, игры для пк, xbox, playstation без регистрации. У нас вы найдете новые Зарубежные сериалы и Русские сериалы 2013, 2014, 2015 годов. Оставайтесь с нами, качайте любимые фильмы, игры, сериалы, книги и музыку.