img image001 image001 image001 image001 image001 image001 image001 image001 image001 image001 image001 image001 image001 image001 image001

Planets Sun Sun Sun
Статистика раздачи
Автор: Nickolas3434 | Размер: 1.45 ГБ | Добавлен: 30 окт 2015
Раздают: 3425    Качают: 303
Скачать торрент
Скачать торрент
Описание торрента

СообщениеДобавлено: 30 окт 2015 

Хранитель Луны
Mune, le gardien de la lune
«Он не спасет мир. Он спасет пять миров!»


Страна: Франция
Жанр: мультфильм
Год выпуска: 2014
Продолжительность: 01:21:26
Перевод: Профессиональный (полное дублирование) [Лицензия BD RUS]
Cубтитры: нет
Оригинальная аудиодорожка: нет
Режиссер: Александр Эбоян / Alexandre Heboyan, Бенуа Филиппон / Benoît Philippon
В ролях: Омар Си, Изиа Ижлен, Майкл Грегорио, Шафик Ахмад, Бенуа Аллемане, Шеннон Арчи, Федор Аткин, Джошуа Дж. Баллард, Дэмиен Буассо, Эммануэль Кюртиль, Софи де Фюрст, Тревор Дивэлл
Описание:
На диковинной планете, где смена дня и ночи осуществляется вручную, юного фавна Мьюна неожиданно избирают хранителем Луны. Но к своему ужасу, он почти сразу теряет ее! Воспользовавшись этим, царь подземного мира Некрос крадет и гасит Солнце. Теперь, чтобы спасти планету, Мьюн вместе с отважной девочкой из воска Глим и заносчивым Сохоном, хранителем Солнца, должны отправиться в удивительное и опасное путешествие.

Релиз:
Автор рипа: Stalker oK
Сэмпл
Качество видео: BDRip-AVC [Blu-ray 1080i]
Формат видео: MKV
Видео кодек: AVC
Аудио кодек: AC3
Видео: 2122 Кбит/сек, 1132x474 (2.35:1), 25 кадр/сек, AVC
Аудио: русский, 448 Кбит/сек, 48 КГц, 16 бит, 5.1, AC3
Навигация по главам: есть
General
Unique ID : 190285712831041770949292242783270423213 (0x8F27B1FACAD6A667AF3769AE58F54AAD)
Complete name : N:RipsMUNEMune.le.gardien.de.la.lune.2014.BDRip-AVC.Dub.1.45Gb...stalkerok.new-team.mkv
Format : Matroska
File size : 1.45 GiB
Duration : 1h 21mn
Overall bit rate : 2 557 Kbps
Movie name : Mune, le gardien de la lune (2014) (New-Team) (Rip by Stalker oK)
Encoded date : UTC 2015-10-29 11:06:27
Writing application : mkvmerge v7.9.0 ('Birds') 64bit
Writing library : libebml v1.3.1 + libmatroska v1.4.2
Video
ID : 1
Format : AVC
Format/Info : Advanced Video Codec
Format profile : High@L4.1
Format settings, CABAC : Yes
Format settings, ReFrames : 12 frames
Codec ID : V_MPEG4/ISO/AVC
Duration : 1h 21mn
Bit rate : 2 122 Kbps
Width : 1 132 pixels
Height : 474 pixels
Display aspect ratio : 2.35:1
Frame rate : 25.000 fps
Color space : YUV
Chroma subsampling : 4:2:0
Bit depth : 8 bits
Scan type : Progressive
Bits/(Pixel*Frame) : 0.158
Stream size : 1.17 GiB (80%)
Title : Mune, le gardien de la lune (2014) (New-Team) (Rip by Stalker oK)
Writing library : x264 core 146 r2538kMod 121396c
Encoding settings : cabac=1 / ref=12 / deblock=1:-1:-1 / analyse=0x3:0x133 / me=umh / subme=11 / psy=1 / fade_compensate=0.00 / psy_rd=1.00:0.08 / mixed_ref=1 / me_range=48 / chroma_me=1 / trellis=2 / 8x8dct=1 / cqm=0 / deadzone=21,11 / fast_pskip=0 / chroma_qp_offset=-3 / threads=12 / lookahead_threads=3 / sliced_threads=0 / nr=0 / decimate=0 / interlaced=0 / bluray_compat=0 / constrained_intra=0 / fgo=0 / bframes=14 / b_pyramid=2 / b_adapt=2 / b_bias=0 / direct=3 / weightb=1 / open_gop=0 / weightp=2 / keyint=250 / keyint_min=25 / scenecut=40 / intra_refresh=0 / rc_lookahead=60 / rc=2pass / mbtree=0 / bitrate=2122 / ratetol=1.0 / qcomp=0.70 / qpmin=0 / qpmax=69 / qpstep=4 / cplxblur=20.0 / qblur=0.5 / vbv_maxrate=50000 / vbv_bufsize=62500 / nal_hrd=none / filler=0 / ip_ratio=1.40 / pb_ratio=1.30 / aq=3:0.75
Audio
ID : 2
Format : AC-3
Format/Info : Audio Coding 3
Mode extension : CM (complete main)
Codec ID : A_AC3
Duration : 1h 21mn
Bit rate mode : Constant
Bit rate : 448 Kbps
Channel(s) : 6 channels
Channel positions : Front: L C R, Side: L R, LFE
Sampling rate : 48.0 KHz
Bit depth : 16 bits
Compression mode : Lossy
Stream size : 261 MiB (18%)
Language : Russian
Menu
00:00:00.000 : en:Chapter 1
00:05:54.160 : en:Chapter 2
00:13:02.640 : en:Chapter 3
00:17:54.560 : en:Chapter 4
00:24:42.000 : en:Chapter 5
00:30:02.960 : en:Chapter 6
00:34:33.560 : en:Chapter 7
00:42:25.960 : en:Chapter 8
00:47:45.000 : en:Chapter 9
00:53:42.760 : en:Chapter 10
01:00:16.640 : en:Chapter 11
01:09:48.000 : en:Chapter 12





   Похожие торренты   Торрент   Размер 
В этой теме нет новых непрочитанных сообщений. Хранитель Луны / Mune, le gardien de la lune (2014) BDRip-AVC от New-Team | Лицензия

219 | 43

743.31 МБ

В этой теме нет новых непрочитанных сообщений. Хранитель луны / Mune, le gardien de la lune (2014) BDRip 1080p | Лицензия

2112 | 225

4.07 ГБ

В этой теме нет новых непрочитанных сообщений. Хранитель Луны / Mune, le gardien de la lune (2014) BDRip от HQCLUB | D | Лицензия

109 | 2

1.45 ГБ

В этой теме нет новых непрочитанных сообщений. Хранитель Луны / Mune, le gardien de la lune (2014) BDRip-AVC от ExKinoRay | Лицензия

703 | 74

1.79 ГБ

В этой теме нет новых непрочитанных сообщений. Хранитель Луны / Mune, le gardien de la lune (2014) BDRip 720p | Лицензия

8388 | 406

1.45 ГБ

В этой теме нет новых непрочитанных сообщений. Хранитель луны / Mune, le gardien de la lune (2014) BDRip от Kaztorrents | КПК | ITA Transfer | Лицензия

61 | 5

390.08 МБ

В этой теме нет новых непрочитанных сообщений. Хранитель Луны / Mune, le gardien de la lune (2014) Blu-Ray | Лицензия

201 | 28

16.18 ГБ




Вы не можете начинать темы
Вы не можете отвечать на сообщения
Вы не можете редактировать свои сообщения
Вы не можете удалять свои сообщения
Вы не можете добавлять вложения

Перейти:  
Для Мосгорсуда, Роскомнадзора и рекламодателей: mosgorsud-torrent[собачка]yandex.ru
 Вход
ppkBB3cker v.2 © 2008-2014 @ PPK
[ Time : 0.046s | 18 Queries | GZIP : Off ]

Торрент трекер RUTOR.IN, Не можете зайти на rutor.org? Какой новый адрес рутор? Какое зеркало рутор? Не работает rutor.org и зеркала? Тогда наш торрент специально для вас. Rutor.in неофициальное зеркало rutor. В случае если у Вас заблокирован rutor или вдруг Вы не можете на него зайти, то Вы без труда сможете скачать бесплатно и без рекламы последние новинки кино, игр, сериалов и прочего у нас, на Rutor.in. Не нужно использовать прокси, чтобы зайти на рутор, достаточно воспользоваться нашим ресурсом. Все новые фильмы, игры, сериалы, книги и музыка за 2013 и 2014 годы через торрент бесплатно. Скачивайте фильмы в хорошем качестве, игры для пк, xbox, playstation без регистрации. У нас вы найдете новые Зарубежные сериалы и Русские сериалы 2013, 2014, 2015 годов. Оставайтесь с нами, качайте любимые фильмы, игры, сериалы, книги и музыку.