img image001 image001 image001 image001 image001 image001 image001 image001 image001 image001 image001 image001 image001 image001 image001

Planets Sun Sun Sun
Статистика раздачи
Автор: Nickolas3434 | Размер: 20.94 ГБ | Добавлен: 31 окт 2015
Раздают: 419    Качают: 42
Скачать торрент
Скачать торрент
Описание торрента

СообщениеДобавлено: 31 окт 2015 


Информация о фильме
Название: Головоломка
Оригинальное название: Inside Out
Год выхода: 2015
Жанр: мультфильм, семейный, комедия
Режиссер: Пит Доктер, Роналдо Дель Кармен
В ролях: Эми Полер, Филлис Смит, Ричард Кайнд, Билл Хейдер, Льюис Блэк, Минди Кейлинг, Кейтлин Диас, Дайан Лэйн, Кайл МакЛоклен, Пола Паундстон
О фильме:
Райли — обычная 11-летняя школьница, и, как у каждого из нас, ее поведение определяют пять базовых эмоций: Радость, Печаль, Страх, Гнев и Брезгливость. Эмоции живут в сознании девочки и каждый день помогают ей справляться с проблемами, руководя всеми ее поступками. До поры до времени эмоции живут дружно, но вдруг оказывается, что Райли и ее родителям предстоит переезд из небольшого уютного городка в шумный и людный мегаполис. Каждая из эмоций считает, что именно она лучше прочих знает, что нужно делать в этой непростой ситуации, и в голове у девочки наступает полная неразбериха. Чтобы наладить жизнь в большом городе, освоиться в новой школе и подружиться с одноклассниками, эмоциям Райли предстоит снова научиться работать сообща.

Страна: США
Студия: Pixar Animation Studios, Walt Disney Pictures
Продолжительность: 01:34:50
Перевод: Профессиональный (дублированный) Blu-ray EUR
Файл
Формат: Matroska
Видео: 1920x1080 at 23.976 fps, MPEG-4 AVC, ~24234 kbps avg
Aудио#1: Russian: 48 kHz, AC3, 3/2 (L,C,R,l,r) + LFE ch, ~640.00 kbps avg |Дубляж, Blu-ray EUR|
Aудио#2: Ukrainian: 48 kHz, AC3, 3/2 (L,C,R,l,r) + LFE ch, ~384.00 kbps avg |Дубляж, iTunes Russia|
Aудио#3: English: 48 kHz, DTS-HD MA, 7.1 ch, ~3290.00 kbps avg
Субтитры: Russian, English
Общее
Уникальный идентификатор : 177300047444138214812147802145641349021 (0x8562BF3EC29B1E0991D81808A8EE3F9D)
Полное имя : Inside.Out.2015.BDRemux.1080p.bog3417.mkv
Формат : Matroska
Версия формата : Version 2
Размер файла : 18,8 Гбайт
Продолжительность : 1 ч. 34 м.
Режим общего битрейта : Переменный
Общий поток : 28,3 Мбит/сек
Дата кодирования : UTC 2015-10-29 21:43:22
Программа кодирования : mkvmerge v7.9.0 ('Birds') 64bit
Библиотека кодирования : libebml v1.3.1 + libmatroska v1.4.2
Видео
Идентификатор : 1
Формат : AVC
Формат/Информация : Advanced Video Codec
Профиль формата : High@L4.1
Параметр CABAC формата : Да
Параметр ReFrames формата : 4 кадра
Идентификатор кодека : V_MPEG4/ISO/AVC
Продолжительность : 1 ч. 34 м.
Вид битрейта : Переменный
Максимальный битрейт : 34,0 Мбит/сек
Ширина : 1920 пикселей
Высота : 1080 пикселей
Соотношение сторон : 16:9
Режим частоты кадров : Постоянный
Частота кадров : 23,976 кадра/сек
Цветовое пространство : YUV
Субдискретизация насыщенности : 4:2:0
Битовая глубина : 8 бит
Тип развёртки : Прогрессивная
Default : Да
Forced : Нет
Аудио #1
Идентификатор : 2
Формат : AC-3
Формат/Информация : Audio Coding 3
Расширение режима : CM (complete main)
Параметр Endianness формата : Big
Идентификатор кодека : A_AC3
Продолжительность : 1 ч. 34 м.
Вид битрейта : Постоянный
Битрейт : 640 Кбит/сек
Каналы : 6 каналов
Расположение каналов : Front: L C R, Side: L R, LFE
Частота : 48,0 КГц
Метод сжатия : С потерями
Задержка видео : 17 мс.
Размер потока : 434 Мбайт (2%)
Язык : Russian
Default : Да
Forced : Нет
Аудио #2
Идентификатор : 3
Формат : AC-3
Формат/Информация : Audio Coding 3
Расширение режима : CM (complete main)
Параметр Endianness формата : Big
Идентификатор кодека : A_AC3
Продолжительность : 1 ч. 34 м.
Вид битрейта : Постоянный
Битрейт : 384 Кбит/сек
Каналы : 6 каналов
Расположение каналов : Front: L C R, Side: L R, LFE
Частота : 48,0 КГц
Метод сжатия : С потерями
Размер потока : 261 Мбайт (1%)
Язык : Ukrainian
Default : Нет
Forced : Нет
Аудио #3
Идентификатор : 4
Формат : DTS
Формат/Информация : Digital Theater Systems
Профиль формата : MA / Core
Режим : 16
Параметр Endianness формата : Big
Идентификатор кодека : A_DTS
Продолжительность : 1 ч. 34 м.
Вид битрейта : Переменный
Битрейт : Неизвестно / 1509 Кбит/сек
Каналы : 8 каналов / 6 каналов
Расположение каналов : Front: L C R, Side: L R, Back: L R, LFE / Front: L C R, Side: L R, LFE
Частота : 48,0 КГц
Битовая глубина : 24 бит
Метод сжатия : Без потерь / Lossy
Язык : English
Default : Нет
Forced : Нет
Текст #1
Идентификатор : 5
Формат : UTF-8
Идентификатор кодека : S_TEXT/UTF8
Идентификатор кодека/Информация : UTF-8 Plain Text
Язык : Russian
Default : Нет
Forced : Нет
Текст #2
Идентификатор : 6
Формат : UTF-8
Идентификатор кодека : S_TEXT/UTF8
Идентификатор кодека/Информация : UTF-8 Plain Text
Язык : English
Default : Нет
Forced : Нет
Меню
00:00:00.000 : en:Chapter 1
00:07:22.692 : en:Chapter 2
00:11:36.779 : en:Chapter 3
00:15:46.403 : en:Chapter 4
00:20:02.242 : en:Chapter 5
00:25:21.436 : en:Chapter 6
00:26:47.063 : en:Chapter 7
00:30:10.183 : en:Chapter 8
00:34:45.791 : en:Chapter 9
00:36:02.285 : en:Chapter 10
00:37:45.304 : en:Chapter 11
00:41:27.359 : en:Chapter 12
00:43:35.612 : en:Chapter 13
00:45:19.508 : en:Chapter 14
00:46:51.850 : en:Chapter 15
00:50:02.457 : en:Chapter 16
00:51:34.341 : en:Chapter 17
00:56:12.160 : en:Chapter 18
01:00:03.683 : en:Chapter 19
01:01:17.840 : en:Chapter 20
01:03:50.367 : en:Chapter 21
01:06:27.191 : en:Chapter 22
01:11:15.771 : en:Chapter 23
01:13:40.540 : en:Chapter 24
01:15:38.658 : en:Chapter 25
01:20:00.336 : en:Chapter 26
01:23:57.198 : en:Chapter 27
01:26:18.339 : en:Chapter 28



   Похожие торренты   Торрент   Размер 
В этой теме нет новых непрочитанных сообщений. Головоломка / Inside Out (2015) BDRemux 1080p | Лицензия

543 | 56

18.78 ГБ

В этой теме нет новых непрочитанных сообщений. Головоломка / Inside Out (2015) BDRip 1080p | Лицензия

1039 | 66

7.76 ГБ

В этой теме нет новых непрочитанных сообщений. Головоломка / Inside Out (2015) BDRip 1080p | Лицензия

5363 | 330

5.76 ГБ

В этой теме нет новых непрочитанных сообщений. Головоломка / Inside Out (2015) BDRip 1080p от BlueBird | Лицензия

1176 | 70

10.37 ГБ

В этой теме нет новых непрочитанных сообщений. Головоломка / Inside Out (2015) Blu-Ray CEE 1080p от New-Team | 3D-Video | Лицензия

47 | 43

43.74 ГБ

В этой теме нет новых непрочитанных сообщений. Головоломка / Inside Out (2015) BDRip | Лицензия

1596 | 46

1.46 ГБ

В этой теме нет новых непрочитанных сообщений. Головоломка / Inside Out (2015) HDRip | КПК | Лицензия

268 | 30

436.76 МБ




Вы не можете начинать темы
Вы не можете отвечать на сообщения
Вы не можете редактировать свои сообщения
Вы не можете удалять свои сообщения
Вы не можете добавлять вложения

Перейти:  
Для Мосгорсуда, Роскомнадзора и рекламодателей: mosgorsud-torrent[собачка]yandex.ru
 Вход
ppkBB3cker v.2 © 2008-2014 @ PPK
[ Time : 3.824s | 16 Queries | GZIP : Off ]

cron