img image001 image001 image001 image001 image001 image001 image001 image001 image001 image001 image001 image001 image001 image001 image001

Planets Sun Sun Sun
Статистика раздачи
Автор: Nickolas3434 | Размер: 5.76 ГБ | Добавлен: 31 окт 2015
Раздают: 5363    Качают: 330
Скачать торрент
Скачать торрент
Описание торрента

СообщениеДобавлено: 31 окт 2015 


Информация о фильме
Название: Головоломка
Оригинальное название: Inside Out
Год выхода: 2015
Жанр: мультфильм, семейный, комедия
Режиссер: Пит Доктер, Роналдо Дель Кармен
В ролях: Эми Полер, Филлис Смит, Ричард Кайнд, Билл Хейдер, Льюис Блэк, Минди Кейлинг, Кейтлин Диас, Дайан Лэйн, Кайл МакЛоклен, Пола Паундстон
О фильме: Райли — обычная 11-летняя школьница, и, как у каждого из нас, ее поведение определяют пять базовых эмоций: Радость, Печаль, Страх, Гнев и Брезгливость. Эмоции живут в сознании девочки и каждый день помогают ей справляться с проблемами, руководя всеми ее поступками. До поры до времени эмоции живут дружно, но вдруг оказывается, что Райли и ее родителям предстоит переезд из небольшого уютного городка в шумный и людный мегаполис. Каждая из эмоций считает, что именно она лучше прочих знает, что нужно делать в этой непростой ситуации, и в голове у девочки наступает полная неразбериха. Чтобы наладить жизнь в большом городе, освоиться в новой школе и подружиться с одноклассниками, эмоциям Райли предстоит снова научиться работать сообща.

Выпущено: Walt Disney Pictures
Продолжительность: 01:34:50
Перевод: Дублированный (лицензия) [локализован в т.ч. и видеоряд]
Файл
Кодек: x264
Качество: BDRip (источник: Blu-ray Disc)
Видео: 1920x1080 (16:9), 23.976 fps, 7420 kbps
Аудио #1: AC-3, 6 ch, 640 kbps (Rus)
Аудио #2: AC-3, 6 ch, 640 kbps (Eng)
Субтитры: Русские, Английские
Скачать: сэмпл
Скриншоты

Общее
Уникальный идентификатор : 191795429753185127232289482256048571923 (0x904A74C5514EDCF18B469BF8258DC613)
Полное имя : Inside.Out.2015.BDRip.1080p.Rus.Eng.mkv
Формат : Matroska
Версия формата : Version 2
Размер файла : 5,76 Гбайт
Продолжительность : 1 ч. 34 м.
Общий поток : 8703 Кбит/сек
Название фильма : Головоломка / Inside Out (2015)
Дата кодирования : UTC 2015-10-31 09:03:34
Программа кодирования : mkvmerge v5.8.0 ('No Sleep / Pillow') built on Sep 2 2012 15:37:04
Библиотека кодирования : libebml v1.2.3 + libmatroska v1.3.0
Видео
Идентификатор : 1
Формат : AVC
Формат/Информация : Advanced Video Codec
Профиль формата : High@L4.1
Параметр CABAC формата : Да
Параметр ReFrames формата : 4 кадра
Идентификатор кодека : V_MPEG4/ISO/AVC
Продолжительность : 1 ч. 34 м.
Битрейт : 7420 Кбит/сек
Ширина : 1920 пикселей
Высота : 1080 пикселей
Соотношение сторон : 16:9
Режим частоты кадров : Постоянный
Частота кадров : 23,976 кадра/сек
Цветовое пространство : YUV
Субдискретизация насыщенности : 4:2:0
Битовая глубина : 8 бит
Тип развёртки : Прогрессивная
Бит/(Пиксели*Кадры) : 0.149
Размер потока : 4,80 Гбайт (83%)
Заголовок : Release by AlexKa
Библиотека кодирования : x264 core 148 r2638 7599210
Настройки программы : cabac=1 / ref=4 / deblock=1:0:0 / analyse=0x3:0x133 / me=umh / subme=11 / psy=1 / psy_rd=1.00:0.00 / mixed_ref=1 / me_range=32 / chroma_me=1 / trellis=2 / 8x8dct=1 / cqm=0 / deadzone=21,11 / fast_pskip=0 / chroma_qp_offset=-2 / threads=12 / lookahead_threads=1 / sliced_threads=0 / nr=0 / decimate=0 / interlaced=0 / bluray_compat=0 / constrained_intra=0 / bframes=6 / b_pyramid=2 / b_adapt=2 / b_bias=0 / direct=3 / weightb=1 / open_gop=0 / weightp=2 / keyint=240 / keyint_min=23 / scenecut=40 / intra_refresh=0 / rc=2pass / mbtree=0 / bitrate=7420 / ratetol=1.0 / qcomp=0.60 / qpmin=0 / qpmax=69 / qpstep=4 / cplxblur=20.0 / qblur=0.5 / ip_ratio=1.40 / pb_ratio=1.30 / aq=1:1.00
Язык : English
Аудио #1
Идентификатор : 2
Формат : AC-3
Формат/Информация : Audio Coding 3
Расширение режима : CM (complete main)
Параметр Endianness формата : Big
Идентификатор кодека : A_AC3
Продолжительность : 1 ч. 34 м.
Вид битрейта : Постоянный
Битрейт : 640 Кбит/сек
Каналы : 6 каналов
Расположение каналов : Front: L C R, Side: L R, LFE
Частота : 48,0 КГц
Метод сжатия : С потерями
Размер потока : 434 Мбайт (7%)
Заголовок : Rus
Язык : Russian
Аудио #2
Идентификатор : 3
Формат : AC-3
Формат/Информация : Audio Coding 3
Расширение режима : CM (complete main)
Параметр Endianness формата : Big
Идентификатор кодека : A_AC3
Продолжительность : 1 ч. 34 м.
Вид битрейта : Постоянный
Битрейт : 640 Кбит/сек
Каналы : 6 каналов
Расположение каналов : Front: L C R, Side: L R, LFE
Частота : 48,0 КГц
Метод сжатия : С потерями
Размер потока : 434 Мбайт (7%)
Заголовок : Eng
Язык : English
Текст #1
Идентификатор : 4
Формат : UTF-8
Идентификатор кодека : S_TEXT/UTF8
Идентификатор кодека/Информация : UTF-8 Plain Text
Заголовок : Rus
Язык : Russian
Текст #2
Идентификатор : 5
Формат : UTF-8
Идентификатор кодека : S_TEXT/UTF8
Идентификатор кодека/Информация : UTF-8 Plain Text
Заголовок : Eng
Язык : English
Меню
00:00:00.000 : :Chapter 01
00:07:22.692 : :Chapter 02
00:11:36.779 : :Chapter 03
00:15:46.403 : :Chapter 04
00:20:02.242 : :Chapter 05
00:25:21.436 : :Chapter 06
00:26:47.063 : :Chapter 07
00:30:10.183 : :Chapter 08
00:34:45.791 : :Chapter 09
00:36:02.285 : :Chapter 10
00:37:45.304 : :Chapter 11
00:41:27.359 : :Chapter 12
00:43:35.612 : :Chapter 13
00:45:19.508 : :Chapter 14
00:46:51.850 : :Chapter 15
00:50:02.457 : :Chapter 16
00:51:34.341 : :Chapter 17
00:56:12.160 : :Chapter 18
01:00:03.683 : :Chapter 19
01:01:17.840 : :Chapter 20
01:03:50.367 : :Chapter 21
01:06:27.191 : :Chapter 22
01:11:15.771 : :Chapter 23
01:13:40.540 : :Chapter 24
01:15:38.658 : :Chapter 25
01:20:00.336 : :Chapter 26
01:23:57.198 : :Chapter 27
01:26:18.339 : :Chapter 28
01:34:49.558 : :Chapter 29
x264 [info]: frame I:1412 Avg QP:14.56 size:243139
x264 [info]: frame P:38609 Avg QP:17.31 size: 69084
x264 [info]: frame B:96398 Avg QP:18.32 size: 23517
x264 [info]: consecutive B-frames: 5.8% 2.8% 18.7% 37.4% 21.9% 12.1% 1.4%



   Похожие торренты   Торрент   Размер 
В этой теме нет новых непрочитанных сообщений. Головоломка / Inside Out (2015) BDRip 1080p | Лицензия

1039 | 66

7.76 ГБ

В этой теме нет новых непрочитанных сообщений. Головоломка / Inside Out (2015) BDRip 1080p от BlueBird | Лицензия

1176 | 70

10.37 ГБ

В этой теме нет новых непрочитанных сообщений. Головоломка / Inside Out (2015) BDRemux 1080p | Лицензия

419 | 42

20.94 ГБ

В этой теме нет новых непрочитанных сообщений. Головоломка / Inside Out (2015) BDRemux 1080p | Лицензия

543 | 56

18.78 ГБ

В этой теме нет новых непрочитанных сообщений. Головоломка / Inside Out (2015) Blu-Ray CEE 1080p от New-Team | 3D-Video | Лицензия

47 | 43

43.74 ГБ

В этой теме нет новых непрочитанных сообщений. Головоломка / Inside Out (2015) BDRip | Лицензия

1596 | 46

1.46 ГБ

В этой теме нет новых непрочитанных сообщений. Головоломка / Inside Out (2015) BDRip-AVC от HELLYWOOD | Лицензия

245 | 15

1.46 ГБ




Вы не можете начинать темы
Вы не можете отвечать на сообщения
Вы не можете редактировать свои сообщения
Вы не можете удалять свои сообщения
Вы не можете добавлять вложения

Перейти:  
Для Мосгорсуда, Роскомнадзора и рекламодателей: mosgorsud-torrent[собачка]yandex.ru
 Вход
ppkBB3cker v.2 © 2008-2014 @ PPK
[ Time : 0.043s | 15 Queries | GZIP : Off ]

cron