img image001 image001 image001 image001 image001 image001 image001 image001 image001 image001 image001 image001 image001 image001 image001

Planets Sun Sun Sun
Статистика раздачи
Автор: Nickolas3434 | Размер: 7.76 ГБ | Добавлен: 31 окт 2015
Раздают: 1039    Качают: 66
Скачать торрент
Скачать торрент
Описание торрента

СообщениеДобавлено: 31 окт 2015 


Информация о фильме
Название: Головоломка
Оригинальное название: Inside Out
Год выхода: 2015
Жанр: мультфильм, семейный, комедия
Режиссер: Пит Доктер, Роналдо Дель Кармен
В ролях: Эми Полер, Филлис Смит, Ричард Кайнд, Билл Хейдер, Льюис Блэк, Минди Кейлинг, Кейтлин Диас, Дайан Лэйн, Кайл МакЛоклен, Пола Паундстон
О фильме: Райли — обычная 11-летняя школьница, и, как у каждого из нас, ее поведение определяют пять базовых эмоций: Радость, Печаль, Страх, Гнев и Брезгливость. Эмоции живут в сознании девочки и каждый день помогают ей справляться с проблемами, руководя всеми ее поступками. До поры до времени эмоции живут дружно, но вдруг оказывается, что Райли и ее родителям предстоит переезд из небольшого уютного городка в шумный и людный мегаполис. Каждая из эмоций считает, что именно она лучше прочих знает, что нужно делать в этой непростой ситуации, и в голове у девочки наступает полная неразбериха. Чтобы наладить жизнь в большом городе, освоиться в новой школе и подружиться с одноклассниками, эмоциям Райли предстоит снова научиться работать сообща.

Выпущено: Walt Disney Pictures, Pixar Animation Studios
Продолжительность: 01:34:49
Перевод: Дублированный (лицензия) + украинский дублированный (лицензия)
Файл
Кодек: x264
Качество: BDRip (источник: Blu-ray Disc)
Видео: 1920x1080 (16:9), 23.976 fps, 9790 kbps
Аудио #1: AC-3, 6 ch, 640 kbps (Rus)
Аудио #2: AC-3, 6 ch, 640 kbps (Ukr)
Аудио #3: AC-3, 6 ch, 640 kbps (Eng)
Субтитры: Русские, Английские
Скачать: сэмпл
Скриншоты

General
Unique ID : 192714585075766878320717777676265124952 (0x90FB7AA083BB6963A89E0F41193CF458)
Complete name : D:Inside.Out.2015.BDRip.1080p.Rus.Ukr.Eng.mkv
Format : Matroska
Format version : Version 2
File size : 7.76 GiB
Duration : 1h 34mn
Overall bit rate : 11.7 Mbps
Movie name : Головоломка / Inside Out (2015)
Encoded date : UTC 2015-10-31 16:35:57
Writing application : mkvmerge v5.8.0 ('No Sleep / Pillow') built on Sep 2 2012 15:37:04
Writing library : libebml v1.2.3 + libmatroska v1.3.0
Attachements : cover.png / logfile.log
Video
ID : 1
Format : AVC
Format/Info : Advanced Video Codec
Format profile : High@L4.1
Format settings, CABAC : Yes
Format settings, ReFrames : 4 frames
Codec ID : V_MPEG4/ISO/AVC
Duration : 1h 34mn
Bit rate : 9 790 Kbps
Width : 1 920 pixels
Height : 1 080 pixels
Display aspect ratio : 16:9
Frame rate mode : Constant
Frame rate : 23.976 fps
Color space : YUV
Chroma subsampling : 4:2:0
Bit depth : 8 bits
Scan type : Progressive
Bits/(Pixel*Frame) : 0.197
Stream size : 6.33 GiB (82%)
Title : Головоломка / Inside Out (2015)
Writing library : x264 core 148 r2638 7599210
Encoding settings : cabac=1 / ref=4 / deblock=1:0:0 / analyse=0x3:0x133 / me=umh / subme=10 / psy=1 / psy_rd=1.00:0.00 / mixed_ref=1 / me_range=24 / chroma_me=1 / trellis=2 / 8x8dct=1 / cqm=0 / deadzone=21,11 / fast_pskip=0 / chroma_qp_offset=-2 / threads=12 / lookahead_threads=2 / sliced_threads=0 / nr=0 / decimate=0 / interlaced=0 / bluray_compat=0 / constrained_intra=0 / bframes=8 / b_pyramid=2 / b_adapt=2 / b_bias=0 / direct=3 / weightb=1 / open_gop=0 / weightp=2 / keyint=240 / keyint_min=23 / scenecut=40 / intra_refresh=0 / rc=2pass / mbtree=0 / bitrate=9790 / ratetol=1.0 / qcomp=0.60 / qpmin=0 / qpmax=69 / qpstep=4 / cplxblur=20.0 / qblur=0.5 / ip_ratio=1.40 / pb_ratio=1.30 / aq=1:0.95
Language : English
Default : Yes
Forced : No
Audio #1
ID : 2
Format : AC-3
Format/Info : Audio Coding 3
Mode extension : CM (complete main)
Format settings, Endianness : Big
Codec ID : A_AC3
Duration : 1h 34mn
Bit rate mode : Constant
Bit rate : 640 Kbps
Channel(s) : 6 channels
Channel positions : Front: L C R, Side: L R, LFE
Sampling rate : 48.0 KHz
Bit depth : 16 bits
Compression mode : Lossy
Stream size : 434 MiB (5%)
Title : Дубляж, Blu-ray CEE
Language : Russian
Default : Yes
Forced : No
Audio #2
ID : 3
Format : AC-3
Format/Info : Audio Coding 3
Mode extension : CM (complete main)
Format settings, Endianness : Big
Codec ID : A_AC3
Duration : 1h 34mn
Bit rate mode : Constant
Bit rate : 640 Kbps
Channel(s) : 6 channels
Channel positions : Front: L C R, Side: L R, LFE
Sampling rate : 48.0 KHz
Bit depth : 16 bits
Compression mode : Lossy
Stream size : 434 MiB (5%)
Title : Дубляж, Disney / Buena Vista
Language : Ukrainian
Default : No
Forced : No
Audio #3
ID : 4
Format : AC-3
Format/Info : Audio Coding 3
Mode extension : CM (complete main)
Format settings, Endianness : Big
Codec ID : A_AC3
Duration : 1h 34mn
Bit rate mode : Constant
Bit rate : 640 Kbps
Channel(s) : 6 channels
Channel positions : Front: L C R, Side: L R, LFE
Sampling rate : 48.0 KHz
Bit depth : 16 bits
Compression mode : Lossy
Stream size : 434 MiB (5%)
Title : English
Language : English
Default : No
Forced : No
Text #1
ID : 5
Format : UTF-8
Codec ID : S_TEXT/UTF8
Codec ID/Info : UTF-8 Plain Text
Title : Russian
Language : Russian
Default : No
Forced : No
Text #2
ID : 6
Format : UTF-8
Codec ID : S_TEXT/UTF8
Codec ID/Info : UTF-8 Plain Text
Title : English
Language : English
Default : No
Forced : No
Menu
00:00:00.000 : :Chapter 01
00:07:22.692 : :Chapter 02
00:11:36.779 : :Chapter 03
00:15:46.403 : :Chapter 04
00:20:02.242 : :Chapter 05
00:25:21.436 : :Chapter 06
00:26:47.063 : :Chapter 07
00:30:10.183 : :Chapter 08
00:34:45.791 : :Chapter 09
00:36:02.285 : :Chapter 10
00:37:45.304 : :Chapter 11
00:41:27.359 : :Chapter 12
00:43:35.612 : :Chapter 13
00:45:19.508 : :Chapter 14
00:46:51.850 : :Chapter 15
00:50:02.457 : :Chapter 16
00:51:34.341 : :Chapter 17
00:56:12.160 : :Chapter 18
01:00:03.683 : :Chapter 19
01:01:17.840 : :Chapter 20
01:03:50.367 : :Chapter 21
01:06:27.191 : :Chapter 22
01:11:15.771 : :Chapter 23
01:13:40.540 : :Chapter 24
01:15:38.658 : :Chapter 25
01:20:00.336 : :Chapter 26
01:23:57.198 : :Chapter 27
01:26:18.339 : :Chapter 28
x264 [info]: frame I:1317 Avg QP:12.97 size:285579
x264 [info]: frame P:46056 Avg QP:15.91 size: 84516
x264 [info]: frame B:89046 Avg QP:16.59 size: 30260
x264 [info]: consecutive B-frames: 11.6% 4.6% 21.7% 32.9% 17.3% 10.3% 0.5% 0.4% 0.7%



   Похожие торренты   Торрент   Размер 
В этой теме нет новых непрочитанных сообщений. Головоломка / Inside Out (2015) BDRip 1080p | Лицензия

5363 | 330

5.76 ГБ

В этой теме нет новых непрочитанных сообщений. Головоломка / Inside Out (2015) BDRip 1080p от BlueBird | Лицензия

1176 | 70

10.37 ГБ

В этой теме нет новых непрочитанных сообщений. Головоломка / Inside Out (2015) BDRemux 1080p | Лицензия

419 | 42

20.94 ГБ

В этой теме нет новых непрочитанных сообщений. Головоломка / Inside Out (2015) BDRemux 1080p | Лицензия

543 | 56

18.78 ГБ

В этой теме нет новых непрочитанных сообщений. Головоломка / Inside Out (2015) Blu-Ray CEE 1080p от New-Team | 3D-Video | Лицензия

47 | 43

43.74 ГБ

В этой теме нет новых непрочитанных сообщений. Головоломка / Inside Out (2015) BDRip | Лицензия

1596 | 46

1.46 ГБ

В этой теме нет новых непрочитанных сообщений. Головоломка / Inside Out (2015) BDRip от HQCLUB | Лицензия

1361 | 72

1.45 ГБ




Вы не можете начинать темы
Вы не можете отвечать на сообщения
Вы не можете редактировать свои сообщения
Вы не можете удалять свои сообщения
Вы не можете добавлять вложения

Перейти:  
Для Мосгорсуда, Роскомнадзора и рекламодателей: mosgorsud-torrent[собачка]yandex.ru
 Вход
ppkBB3cker v.2 © 2008-2014 @ PPK
[ Time : 0.039s | 15 Queries | GZIP : Off ]

cron