img image001 image001 image001 image001 image001 image001 image001 image001 image001 image001 image001 image001 image001 image001 image001

Planets Sun Sun Sun
Статистика раздачи
Автор: Nickolas3434 | Размер: 2.4 ГБ | Добавлен: 06 ноя 2015
Раздают: 302    Качают: 33
Скачать торрент
Скачать торрент
Описание торрента

СообщениеДобавлено: 06 ноя 2015 


Страна: США / Warner Bros. Animation
Жанр: мультфильм
Год выпуска: 2015
Продолжительность: 01:09:56
Перевод: Профессиональный (многоголосый закадровый)
Cубтитры: английские
Оригинальная аудиодорожка: английский
Режиссер: Спайк Брандт / Spike Brandt, Тони Червоне / Tony Cervone
Роли озвучивали: Риз Хартвиг, Арни Пантойя, Джеймс Хонг, Эрик Бауза, Майкл Хэнкс, Тиа Каррере, Тим Мэтисон, Джо Аляски, Спайк Брандт, Джонни Рис...
Описание: Ещё один день на пляже для проблемной парочки, пока Том и Джерри не сталкиваются со шпионами Джонни Квестом, Хаджи и Бандитом. Когда давний враг семьи Квестов, доктор Зин, узнаёт о том, что у Бентона Квеста есть орудие решения энергетических проблем мира, он посылает армию злобных кошек украсть его и взять в плен Бентона вместе с охранником Рэйсом Бэнноном. Джонни и его новые пушистые друзья отправляются на опасные поиски отца в попытке спасти мир!

Качество: DVDRip-AVC / DVD9 R5 от СР Дистрибуция
Формат: MKV
Видео: 720x572@1024x572 (16:9), MPEG-4 AVC, 1809 kbps / 25 fps / 0.176 bit/pix
Аудио 1: Russian: 48 kHz, AC3, 2/0 ch, 192.00 kbps
Аудио 2: English: 48 kHz, AC3, 5/1 ch, 384.00 kbps
Раздача от:
Бонусы: Все бонусы на диске были без русского перевода, так что имеем то, что имеем!


For the love of Ruggless
Birthday Bashed

General
Format : Matroska
Format version : Version 4 / Version 2
File size : 1.17 GiB
Duration : 1h 9mn
Overall bit rate : 2 387 Kbps
Encoded date : UTC 2015-11-05 05:39:33
Writing application : mkvmerge v8.5.1 ('Where you lead I will follow') 64bit
Writing library : libebml v1.3.3 + libmatroska v1.4.4
DURATION : 01:06:39.365000000
NUMBER_OF_FRAMES : 857
NUMBER_OF_BYTES : 23488
_STATISTICS_WRITING_APP : mkvmerge v8.5.1 ('Where you lead I will follow') 64bit
_STATISTICS_WRITING_DATE_UT : 2015-11-05 05:39:33
_STATISTICS_TAGS : BPS DURATION NUMBER_OF_FRAMES NUMBER_OF_BYTES
Video
ID : 1
Format : AVC
Format/Info : Advanced Video Codec
Format profile : High@L4.1
Format settings, CABAC : Yes
Format settings, ReFrames : 8 frames
Codec ID : V_MPEG4/ISO/AVC
Duration : 1h 9mn
Bit rate : 1 809 Kbps
Width : 720 pixels
Height : 572 pixels
Display aspect ratio : 16:9
Frame rate mode : Constant
Frame rate : 25.000 fps
Color space : YUV
Chroma subsampling : 4:2:0
Bit depth : 8 bits
Scan type : Progressive
Bits/(Pixel*Frame) : 0.176
Stream size : 882 MiB (74%)
Writing library : x264 core 148 r2597 e86f3a1
Encoding settings : cabac=1 / ref=8 / deblock=1:-2:-1 / analyse=0x3:0x113 / me=umh / subme=10 / psy=1 / psy_rd=1.00:0.05 / mixed_ref=1 / me_range=32 / chroma_me=1 / trellis=2 / 8x8dct=1 / cqm=0 / deadzone=21,11 / fast_pskip=0 / chroma_qp_offset=-3 / threads=9 / lookahead_threads=1 / sliced_threads=0 / nr=0 / decimate=0 / interlaced=0 / bluray_compat=0 / constrained_intra=0 / bframes=8 / b_pyramid=2 / b_adapt=2 / b_bias=0 / direct=3 / weightb=1 / open_gop=0 / weightp=2 / keyint=250 / keyint_min=25 / scenecut=40 / intra_refresh=0 / rc=2pass / mbtree=0 / bitrate=1809 / ratetol=1.0 / qcomp=0.60 / qpmin=0 / qpmax=69 / qpstep=4 / cplxblur=20.0 / qblur=0.5 / ip_ratio=1.40 / pb_ratio=1.30 / aq=1:1.00
Language : English
Default : Yes
Forced : No
DURATION : 01:09:55.800000000
NUMBER_OF_FRAMES : 104895
NUMBER_OF_BYTES : 948853992
_STATISTICS_WRITING_APP : mkvmerge v8.5.1 ('Where you lead I will follow') 64bit
_STATISTICS_WRITING_DATE_UT : 2015-11-05 05:39:33
_STATISTICS_TAGS : BPS DURATION NUMBER_OF_FRAMES NUMBER_OF_BYTES
Audio #1
ID : 2
Format : AC-3
Format/Info : Audio Coding 3
Mode extension : CM (complete main)
Format settings, Endianness : Big
Codec ID : A_AC3
Duration : 1h 9mn
Bit rate mode : Constant
Bit rate : 192 Kbps
Channel(s) : 2 channels
Channel positions : Front: L R
Sampling rate : 48.0 KHz
Compression mode : Lossy
Stream size : 96.0 MiB (8%)
Language : Russian
Default : Yes
Forced : No
Audio #2
ID : 3
Format : AC-3
Format/Info : Audio Coding 3
Mode extension : CM (complete main)
Format settings, Endianness : Big
Codec ID : A_AC3
Duration : 1h 9mn
Bit rate mode : Constant
Bit rate : 384 Kbps
Channel(s) : 6 channels
Channel positions : Front: L C R, Side: L R, LFE
Sampling rate : 48.0 KHz
Compression mode : Lossy
Stream size : 192 MiB (16%)
Language : English
Default : No
Forced : No
Text
ID : 4
Format : UTF-8
Codec ID : S_TEXT/UTF8
Codec ID/Info : UTF-8 Plain Text
Language : English
Default : No
Forced : No





   Похожие торренты   Торрент   Размер 
В этой теме нет новых непрочитанных сообщений. Том и Джерри: Шпион Квест / Tom and Jerry: Spy Quest + 4 бонуса (2015) DVDRip | P | лицензия

273 | 65

2.4 ГБ

В этой теме нет новых непрочитанных сообщений. Том и Джерри: Шпион Квест (Шпионские игры) / Tom and Jerry: Spy Quest (2015) DVD9 от New-Team | P | Лицензия

6 | 1

6 ГБ

В этой теме нет новых непрочитанных сообщений. Том и Джерри: Шпион Квест / Tom and Jerry: Spy Quest (2015) WEB-DLRip | P

2261 | 93

1.37 ГБ

В этой теме нет новых непрочитанных сообщений. Том и Джерри: Шпион Квест / Tom and Jerry: Spy Quest (2015) WEB-DL 1080p | iTunes

712 | 78

2.89 ГБ

В этой теме нет новых непрочитанных сообщений. Том и Джерри: Шпион Квест / Tom and Jerry: Spy Quest (2015) WEB-DLRip-AVC от ExKinoray | iTunes

891 | 44

1.37 ГБ

В этой теме нет новых непрочитанных сообщений. Том и Джерри: Шпион Квест / Tom and Jerry: Spy Quest (2015) WEB-DLRip от MegaPeer | iTunes

316 | 19

699.99 МБ

В этой теме нет новых непрочитанных сообщений. Том и Джерри / Tom and Jerry [001-163 из 163] (1940-2005) DVDRip от New-Team | P | лицензия

530 | 368

17.71 ГБ




Вы не можете начинать темы
Вы не можете отвечать на сообщения
Вы не можете редактировать свои сообщения
Вы не можете удалять свои сообщения
Вы не можете добавлять вложения

Перейти:  
Для Мосгорсуда, Роскомнадзора и рекламодателей: mosgorsud-torrent[собачка]yandex.ru
 Вход
ppkBB3cker v.2 © 2008-2014 @ PPK
[ Time : 0.055s | 18 Queries | GZIP : Off ]

Торрент трекер RUTOR.IN, Не можете зайти на rutor.org? Какой новый адрес рутор? Какое зеркало рутор? Не работает rutor.org и зеркала? Тогда наш торрент специально для вас. Rutor.in неофициальное зеркало rutor. В случае если у Вас заблокирован rutor или вдруг Вы не можете на него зайти, то Вы без труда сможете скачать бесплатно и без рекламы последние новинки кино, игр, сериалов и прочего у нас, на Rutor.in. Не нужно использовать прокси, чтобы зайти на рутор, достаточно воспользоваться нашим ресурсом. Все новые фильмы, игры, сериалы, книги и музыка за 2013 и 2014 годы через торрент бесплатно. Скачивайте фильмы в хорошем качестве, игры для пк, xbox, playstation без регистрации. У нас вы найдете новые Зарубежные сериалы и Русские сериалы 2013, 2014, 2015 годов. Оставайтесь с нами, качайте любимые фильмы, игры, сериалы, книги и музыку.
cron