img image001 image001 image001 image001 image001 image001 image001 image001 image001 image001 image001 image001 image001 image001 image001

Planets Sun Sun Sun
Статистика раздачи
Автор: Nickolas3434 | Размер: 2.19 ГБ | Добавлен: 09 ноя 2015
Раздают: 267    Качают: 12
Скачать торрент
Скачать торрент
Описание торрента

СообщениеДобавлено: 09 ноя 2015 


Информация о фильме
Название: Альфа и Омега: Клыкастая братва
Оригинальное название: Alpha and Omega
Год выхода: 2010
Жанр: мультфильм, комедия, приключения
Режиссер: Энтони Белл, Бен Глюк
Роли озвучивали: Джастин Лонг, Хайден Панеттьери, Деннис Хоппер, Дэнни Гловер, Ларри Миллер, Эрик Прайс, Викки Льюис, Крис Кармак, Кевин Суссман, Брайан Донован
Роли дублировали: Сергей Лазарев, Валерия Кудрявцева, Игорь Старосельцев, Василий Бочкарев, Александр Клюквин
О фильме:
Несмотря на то, что герои мультфильма — волки из темного леса, по сути, это история двоечника и отличницы, бедняка и принцессы, лузера и красавицы. Кейт — альфа-волчица, дисциплинированная и ответственная, Хамфри — «омега» (аутсайдер в волчьей стае), легкомысленный молодой волк, веселящийся с такими же, как он сам, бездельниками-волками. И казалось бы, им не суждено быть вместе.. Но судьба распорядилась по-своему: работники Канадского заповедника отловили их и отправили в далекий штат Айдахо, для восстановления популяции волков. Но похоже, что даже волки не хотят жить в Айдахо, и наши герои принимают решение вернуться назад в Канаду. Кейт и Хамфри должны пережить длительное и опасное совместное приключение, чтобы понять, что в этой жизни нет нерушимых правил.

Страна: США, Индия
Студия: Lions Gate Family Entertainment, Crest Animation Productions
Продолжительность: 01:27:44
Перевод: Профессиональный (полное дублирование)
Файл
Кодек: H.264
Качество: BDRip 720р от SuperMin
Видео: 1280x720 (16:9), 3048 kbps, 24.000 fps
Звук: Русский (AC-3, 6ch, 448 kbps)
General
Unique ID : 218898794340728483285208186385655149365 (0xA4AE5FD0E2FB03BC91E3ACA306403335)
Complete name : E:МУЛЬТЫАЛЬФА И ОМЕГААльфа.и.Омега.Клыкастая.Братва.2010.x264.BDRip.720p.DUB.mkv
Format : Matroska
Format version : Version 4 / Version 2
File size : 2.19 GiB
Duration : 1h 27mn
Overall bit rate : 3 567 Kbps
Encoded date : UTC 2015-11-07 16:56:04
Writing application : mkvmerge v8.3.0 ('Over the Horizon') 64bit
Writing library : libebml v1.3.1 + libmatroska v1.4.2
DURATION : 01:27:44.960000000
NUMBER_OF_FRAMES : 164530
NUMBER_OF_BYTES : 294837760
_STATISTICS_WRITING_APP : mkvmerge v8.3.0 ('Over the Horizon') 64bit
_STATISTICS_WRITING_DATE_UT : 2015-11-07 16:56:04
_STATISTICS_TAGS : BPS DURATION NUMBER_OF_FRAMES NUMBER_OF_BYTES
Video
ID : 1
Format : AVC
Format/Info : Advanced Video Codec
Format profile : High@L4.1
Format settings, CABAC : Yes
Format settings, ReFrames : 9 frames
Codec ID : V_MPEG4/ISO/AVC
Duration : 1h 27mn
Bit rate : 3 048 Kbps
Width : 1 280 pixels
Height : 720 pixels
Display aspect ratio : 16:9
Frame rate mode : Constant
Frame rate : 24.000 fps
Color space : YUV
Chroma subsampling : 4:2:0
Bit depth : 8 bits
Scan type : Progressive
Bits/(Pixel*Frame) : 0.138
Stream size : 1.87 GiB (85%)
Writing library : x264 core 146 r2538 121396c
Encoding settings : cabac=1 / ref=9 / deblock=1:-1:-1 / analyse=0x3:0x113 / me=umh / subme=11 / psy=1 / psy_rd=1.00:0.00 / mixed_ref=1 / me_range=24 / chroma_me=1 / trellis=2 / 8x8dct=1 / cqm=0 / deadzone=21,11 / fast_pskip=0 / chroma_qp_offset=-2 / threads=3 / lookahead_threads=1 / sliced_threads=0 / nr=0 / decimate=1 / interlaced=0 / bluray_compat=0 / constrained_intra=0 / bframes=8 / b_pyramid=2 / b_adapt=2 / b_bias=0 / direct=3 / weightb=1 / open_gop=0 / weightp=2 / keyint=240 / keyint_min=22 / scenecut=40 / intra_refresh=0 / rc_lookahead=40 / rc=crf / mbtree=0 / crf=18.5 / qcomp=0.60 / qpmin=0 / qpmax=69 / qpstep=4 / vbv_maxrate=62500 / vbv_bufsize=78125 / crf_max=0.0 / nal_hrd=none / filler=0 / ip_ratio=1.40 / pb_ratio=1.30 / aq=1:0.80
Default : Yes
Forced : No
Audio
ID : 2
Format : AC-3
Format/Info : Audio Coding 3
Mode extension : CM (complete main)
Format settings, Endianness : Big
Codec ID : A_AC3
Duration : 1h 27mn
Bit rate mode : Constant
Bit rate : 448 Kbps
Channel(s) : 6 channels
Channel positions : Front: L C R, Side: L R, LFE
Sampling rate : 48.0 KHz
Compression mode : Lossy
Stream size : 281 MiB (13%)
Language : Russian
Default : Yes
Forced : No



   Похожие торренты   Торрент   Размер 
В этой теме нет новых непрочитанных сообщений. Альфа и Омега: Клыкастая братва / Alpha and Omega (2010) BDRip-AVC | iPad

33 | 3

1.51 ГБ

В этой теме нет новых непрочитанных сообщений. Альфа и Омега: Клыкастая братва / Alpha and Omega (2010) BDRip от alldown | КПК

7 | 3

400.59 МБ

В этой теме нет новых непрочитанных сообщений. Альфа и Омега: Клыкастая братва / Alpha and Omega (2010) BDRip от HQCLUB

104 | 13

1.45 ГБ

В этой теме нет новых непрочитанных сообщений. Альфа и Омега: Клыкастая братва / Alpha and Omega (2010) BDRip от HQ-ViDEO

104 | 8

1.46 ГБ

В этой теме нет новых непрочитанных сообщений. Альфа и Омега: Клыкастая братва / Alpha and Omega (2010) BDRip 1080p

12 | 3

7.35 ГБ

В этой теме нет новых непрочитанных сообщений. Альфа и Омега: Клыкастая братва / Alpha and Omega (2010) BDRip-AVC от DHT-Movies

16 | 5

2.11 ГБ

В этой теме нет новых непрочитанных сообщений. Альфа и Омега: Клыкастая братва / Alpha and Omega (2010) Blu-Ray

2 | 8

21.25 ГБ




Вы не можете начинать темы
Вы не можете отвечать на сообщения
Вы не можете редактировать свои сообщения
Вы не можете удалять свои сообщения
Вы не можете добавлять вложения

Перейти:  
Для Мосгорсуда, Роскомнадзора и рекламодателей: mosgorsud-torrent[собачка]yandex.ru
 Вход
ppkBB3cker v.2 © 2008-2014 @ PPK
[ Time : 0.046s | 14 Queries | GZIP : Off ]

Торрент трекер RUTOR.IN, Не можете зайти на rutor.org? Какой новый адрес рутор? Какое зеркало рутор? Не работает rutor.org и зеркала? Тогда наш торрент специально для вас. Rutor.in неофициальное зеркало rutor. В случае если у Вас заблокирован rutor или вдруг Вы не можете на него зайти, то Вы без труда сможете скачать бесплатно и без рекламы последние новинки кино, игр, сериалов и прочего у нас, на Rutor.in. Не нужно использовать прокси, чтобы зайти на рутор, достаточно воспользоваться нашим ресурсом. Все новые фильмы, игры, сериалы, книги и музыка за 2013 и 2014 годы через торрент бесплатно. Скачивайте фильмы в хорошем качестве, игры для пк, xbox, playstation без регистрации. У нас вы найдете новые Зарубежные сериалы и Русские сериалы 2013, 2014, 2015 годов. Оставайтесь с нами, качайте любимые фильмы, игры, сериалы, книги и музыку.