img image001 image001 image001 image001 image001 image001 image001 image001 image001 image001 image001 image001 image001 image001 image001

Planets Sun Sun Sun
Статистика раздачи
Автор: Nickolas3434 | Размер: 2.18 ГБ | Добавлен: 11 ноя 2015
Раздают: 327    Качают: 22
Скачать торрент
Скачать торрент
Описание торрента

СообщениеДобавлено: 11 ноя 2015 


Информация о фильме
Название: Новые приключения Аленушки и Еремы
Год выхода: 2009
Жанр: семейный, мультфильм
Режиссер: Георгий Гитис
В ролях: Антон Макарский (Ерёма, озвучка), Инна Гомес (Алёнушка, озвучка), Юлия Ковальчук (африканка, озвучка), Александр Ревва (Воевода Гордей / Ёж / Конь, озвучка), Сергей Чонишвили (Шах Рахман, озвучка), Рената Литвинова (тетка Ефросинья, озвучка), Александр Пожаров (царь Дормидонт, озвучка), Евгений Воскресенский (рыцарь Фрауэнлоб фон Цветер, озвучка), Александр Наумов (циклоп Тимур, озвучка), Наталья Щукина (царевна Вселавна, озвучка), Вячеслав Гришечкин (звездочет Фарид, озвучка), Константин Шустарев (шаман Бабучанги, озвучка)
О фильме:
Итак, Ерема женится на Аленушке, Шах — на царевне Всеславе. Получив доступ к нефтяным фонтанам, царевна строит «паролет». Коварный Рыцарь похищает у царевны новый летательный аппарат, а в придачу и Шаха. Приземлившись в Африке, Рыцарь и Шах попадают в плен к людоедам… Всеслава, Аленушка, Ерема и Царь на «крылолете» отправляются на поиски. Но кто спасет героев в последнюю минуту?

Страна: Россия
Продолжительность: 01:14:55
Перевод: Оригинал
Файл
Кодек: H.264
Качество: BDRip 720р от SuperMin
Видео: 1280x544 (2.35:1), 3521 kbps, 25.000 fps
Звук: Русский (AC-3, 6ch, 640 kbps)
x264 [info]: frame I:1145 Avg QP:15.04 size:117353
x264 [info]: frame P:34777 Avg QP:17.96 size: 30036
x264 [info]: frame B:76462 Avg QP:20.72 size: 10456
x264 [info]: consecutive B-frames: 7.0% 8.7% 18.2% 38.7% 12.7% 12.3% 1.2% 0.5% 0.7%
encoded 112384 frames, 2.54 fps, 3520.77 kb/s
General
Unique ID : 186512349135220965919639316401902495533 (0x8C50F8C92DE83D789D86F2FD6796A72D)
Complete name : E:МУЛЬТЫПРИКЛЮЧЕНИЯ АЛЁНУШКИ И ЕРЁМЫ---Новые.Приключения.Алёнушки.и.Ерёмы.2009.x264.BDRip.720p.mkv
Format : Matroska
Format version : Version 4 / Version 2
File size : 2.18 GiB
Duration : 1h 14mn
Overall bit rate : 4 163 Kbps
Encoded date : UTC 2015-11-10 01:27:32
Writing application : mkvmerge v8.3.0 ('Over the Horizon') 64bit
Writing library : libebml v1.3.1 + libmatroska v1.4.2
DURATION : 01:14:55.360000000
NUMBER_OF_FRAMES : 140480
NUMBER_OF_BYTES : 359628800
_STATISTICS_WRITING_APP : mkvmerge v8.3.0 ('Over the Horizon') 64bit
_STATISTICS_WRITING_DATE_UT : 2015-11-10 01:27:32
_STATISTICS_TAGS : BPS DURATION NUMBER_OF_FRAMES NUMBER_OF_BYTES
Video
ID : 1
Format : AVC
Format/Info : Advanced Video Codec
Format profile : High@L4.1
Format settings, CABAC : Yes
Format settings, ReFrames : 10 frames
Codec ID : V_MPEG4/ISO/AVC
Duration : 1h 14mn
Bit rate : 3 521 Kbps
Width : 1 280 pixels
Height : 544 pixels
Display aspect ratio : 2.35:1
Frame rate mode : Constant
Frame rate : 25.000 fps
Color space : YUV
Chroma subsampling : 4:2:0
Bit depth : 8 bits
Scan type : Progressive
Bits/(Pixel*Frame) : 0.202
Stream size : 1.80 GiB (83%)
Writing library : x264 core 146 r2538 121396c
Encoding settings : cabac=1 / ref=10 / deblock=1:-1:-1 / analyse=0x3:0x113 / me=umh / subme=10 / psy=1 / psy_rd=1.00:0.00 / mixed_ref=1 / me_range=32 / chroma_me=1 / trellis=2 / 8x8dct=1 / cqm=0 / deadzone=21,11 / fast_pskip=0 / chroma_qp_offset=-2 / threads=3 / lookahead_threads=1 / sliced_threads=0 / nr=0 / decimate=1 / interlaced=0 / bluray_compat=0 / constrained_intra=0 / bframes=8 / b_pyramid=2 / b_adapt=2 / b_bias=0 / direct=3 / weightb=1 / open_gop=0 / weightp=2 / keyint=250 / keyint_min=23 / scenecut=40 / intra_refresh=0 / rc_lookahead=40 / rc=2pass / mbtree=0 / bitrate=3521 / ratetol=1.0 / qcomp=0.60 / qpmin=0 / qpmax=69 / qpstep=4 / cplxblur=20.0 / qblur=0.5 / vbv_maxrate=62500 / vbv_bufsize=78125 / nal_hrd=none / filler=0 / ip_ratio=1.40 / pb_ratio=1.30 / aq=1:1.00
Default : Yes
Forced : No
Audio
ID : 2
Format : AC-3
Format/Info : Audio Coding 3
Mode extension : CM (complete main)
Format settings, Endianness : Big
Codec ID : A_AC3
Duration : 1h 14mn
Bit rate mode : Constant
Bit rate : 640 Kbps
Channel(s) : 6 channels
Channel positions : Front: L C R, Side: L R, LFE
Sampling rate : 48.0 KHz
Compression mode : Lossy
Stream size : 343 MiB (15%)
Language : Russian
Default : Yes
Forced : No



   Похожие торренты   Торрент   Размер 
В этой теме нет новых непрочитанных сообщений. Новые приключения Аленушки и Еремы (2009) BDRip

50 | 5

747.27 МБ

В этой теме нет новых непрочитанных сообщений. Новые приключения Аленушки и Еремы (2009) BDRip от ExKinoRay

16 | 7

1.09 ГБ

В этой теме нет новых непрочитанных сообщений. Новые приключения Аленушки и Еремы (2009) BDRip-AVC от ExKinoRay

182 | 28

1.28 ГБ

В этой теме нет новых непрочитанных сообщений. Новые приключения Аленушки и Еремы (2009) Blu-Ray

3 | 13

23 ГБ

В этой теме нет новых непрочитанных сообщений. Новые приключения Аленушки и Еремы (2009) DVDRip

10 | 2

746.36 МБ

В этой теме нет новых непрочитанных сообщений. Приключения Алёнушки и Ерёмы (2008) BDRip от HELLYWOOD

92 | 7

1.46 ГБ

В этой теме нет новых непрочитанных сообщений. Приключения Алёнушки и Ерёмы (2008) BDRip 1080p

23 | 3

7.42 ГБ




Вы не можете начинать темы
Вы не можете отвечать на сообщения
Вы не можете редактировать свои сообщения
Вы не можете удалять свои сообщения
Вы не можете добавлять вложения

Перейти:  
Для Мосгорсуда, Роскомнадзора и рекламодателей: mosgorsud-torrent[собачка]yandex.ru
 Вход
ppkBB3cker v.2 © 2008-2014 @ PPK
[ Time : 0.018s | 14 Queries | GZIP : Off ]
CGP output time : 0.062s | 5 Queries | GZIP : Off

Торрент трекер RUTOR.IN, Не можете зайти на rutor.org? Какой новый адрес рутор? Какое зеркало рутор? Не работает rutor.org и зеркала? Тогда наш торрент специально для вас. Rutor.in неофициальное зеркало rutor. В случае если у Вас заблокирован rutor или вдруг Вы не можете на него зайти, то Вы без труда сможете скачать бесплатно и без рекламы последние новинки кино, игр, сериалов и прочего у нас, на Rutor.in. Не нужно использовать прокси, чтобы зайти на рутор, достаточно воспользоваться нашим ресурсом. Все новые фильмы, игры, сериалы, книги и музыка за 2013 и 2014 годы через торрент бесплатно. Скачивайте фильмы в хорошем качестве, игры для пк, xbox, playstation без регистрации. У нас вы найдете новые Зарубежные сериалы и Русские сериалы 2013, 2014, 2015 годов. Оставайтесь с нами, качайте любимые фильмы, игры, сериалы, книги и музыку.