img image001 image001 image001 image001 image001 image001 image001 image001 image001 image001 image001 image001 image001 image001 image001

Planets Sun Sun Sun
Статистика раздачи
Автор: Nickolas3434 | Размер: 3.06 ГБ | Добавлен: 12 ноя 2015
Раздают: 35    Качают: 4
Скачать торрент
Скачать торрент
Описание торрента

СообщениеДобавлено: 12 ноя 2015 


Информация о фильме
Название: Делай ноги
Оригинальное название: Happy Feet
Год выхода: 2006
Жанр: комедия, приключения, семейный, мультфильм, музыка
Режиссер: Джордж Миллер, Уоррен Коулмэн, Джуди Моррис
В ролях: Карлос Алазраки, Ломбардо Бойяр, Джефф Гарсиа, Джонни А. Санчез, Робин Уильямс, Элайджа Вуд, Бриттани Мерфи, Хью Джекман, Николь Кидман, Хьюго Уивинг
О фильме:
В музыкальном мире императорских пингвинов, которые находят себе пару благодаря пению, рождается пингвиненок по имени Мамбл, который не может издать ни одной ноты… зато может отплясывать ту еще чечетку. Его родители, Норма Джин и Мемфис в отчаянии, но надеются, что их лишенный музыкального слуха малыш перерастет свое нелепое танцевальное увлечение. Однако пытаясь пропеть хоть какую-то мелодию, он не может перестать отбивать чечетку даже ради того, чтобы завоевать любовь своей возлюбленной Глории…

Страна: США, Австралия
Продолжительность: 1:48:32
Перевод: Дубляж
Файл
Кодек: h264
Качество: BDRip 720 от SuperMin
Видео: 1280x528 (2.40:1), 3310 kbps, 23.976 fps
Звук: Русский (AC-3, 6ch, 640 kbps)
Субтитры: Русские, английские, украинские
x264 [info]: frame I:996 Avg QP:16.58 size: 88829
x264 [info]: frame P:40763 Avg QP:18.90 size: 32977
x264 [info]: frame B:114378 Avg QP:21.89 size: 11584
x264 [info]: consecutive B-frames: 3.1% 3.9% 12.1% 44.4% 17.3% 16.9% 1.3% 0.6% 0.4%
encoded 156137 frames, 2.00 fps, 3387.74 kb/s
General
Unique ID : 253474162272663379003832449566105802218 (0xBEB159119BDB3B37869E2A36CD3615EA)
Complete name : E:МУЛЬТЫДЕЛАЙ НОГИДелай.Ноги.2006.x264.BDRip.720p.DUB.mkv
Format : Matroska
Format version : Version 4 / Version 2
File size : 3.06 GiB
Duration : 1h 48mn
Overall bit rate : 4 030 Kbps
Encoded date : UTC 2015-11-11 02:47:39
Writing application : mkvmerge v8.3.0 ('Over the Horizon') 64bit
Writing library : libebml v1.3.1 + libmatroska v1.4.2
DURATION : 01:47:47.622000000
NUMBER_OF_FRAMES : 1356
NUMBER_OF_BYTES : 47545
_STATISTICS_WRITING_APP : mkvmerge v8.3.0 ('Over the Horizon') 64bit
_STATISTICS_WRITING_DATE_UT : 2015-11-11 02:47:39
_STATISTICS_TAGS : BPS DURATION NUMBER_OF_FRAMES NUMBER_OF_BYTES
Video
ID : 1
Format : AVC
Format/Info : Advanced Video Codec
Format profile : High@L4.1
Format settings, CABAC : Yes
Format settings, ReFrames : 10 frames
Codec ID : V_MPEG4/ISO/AVC
Duration : 1h 48mn
Bit rate : 3 310 Kbps
Width : 1 280 pixels
Height : 528 pixels
Display aspect ratio : 2.40:1
Frame rate mode : Constant
Frame rate : 23.976 fps
Color space : YUV
Chroma subsampling : 4:2:0
Bit depth : 8 bits
Scan type : Progressive
Bits/(Pixel*Frame) : 0.204
Stream size : 2.51 GiB (82%)
Writing library : x264 core 146 r2538 121396c
Encoding settings : cabac=1 / ref=10 / deblock=1:-1:-1 / analyse=0x3:0x113 / me=umh / subme=11 / psy=1 / psy_rd=1.00:0.00 / mixed_ref=1 / me_range=24 / chroma_me=1 / trellis=2 / 8x8dct=1 / cqm=0 / deadzone=21,11 / fast_pskip=0 / chroma_qp_offset=-2 / threads=3 / lookahead_threads=1 / sliced_threads=0 / nr=0 / decimate=1 / interlaced=0 / bluray_compat=0 / constrained_intra=0 / bframes=8 / b_pyramid=2 / b_adapt=2 / b_bias=0 / direct=3 / weightb=1 / open_gop=0 / weightp=2 / keyint=240 / keyint_min=22 / scenecut=40 / intra_refresh=0 / rc_lookahead=40 / rc=crf / mbtree=0 / crf=18.0 / qcomp=0.60 / qpmin=0 / qpmax=69 / qpstep=4 / vbv_maxrate=62500 / vbv_bufsize=78125 / crf_max=0.0 / nal_hrd=none / filler=0 / ip_ratio=1.40 / pb_ratio=1.30 / aq=1:1.00
Default : Yes
Forced : No
Audio
ID : 2
Format : AC-3
Format/Info : Audio Coding 3
Mode extension : CM (complete main)
Format settings, Endianness : Big
Codec ID : A_AC3
Duration : 1h 48mn
Bit rate mode : Constant
Bit rate : 640 Kbps
Channel(s) : 6 channels
Channel positions : Front: L C R, Side: L R, LFE
Sampling rate : 48.0 KHz
Compression mode : Lossy
Stream size : 497 MiB (16%)
Title : Дубляж
Language : Russian
Default : Yes
Forced : No
Text #1
ID : 3
Format : UTF-8
Codec ID : S_TEXT/UTF8
Codec ID/Info : UTF-8 Plain Text
Language : Russian
Default : No
Forced : No
Text #2
ID : 4
Format : UTF-8
Codec ID : S_TEXT/UTF8
Codec ID/Info : UTF-8 Plain Text
Language : Ukrainian
Default : No
Forced : No
Text #3
ID : 5
Format : UTF-8
Codec ID : S_TEXT/UTF8
Codec ID/Info : UTF-8 Plain Text
Language : English
Default : No
Forced : No



   Похожие торренты   Торрент   Размер 
В этой теме нет новых непрочитанных сообщений. Делай ноги / Happy Feet (2006) BDRip 720 от SuperMin

144 | 20

2.38 ГБ

В этой теме нет новых непрочитанных сообщений. Делай ноги 2 / Happy Feet Two (2011) BDRip 720р от SuperMin | D

46 | 6

3.93 ГБ

В этой теме нет новых непрочитанных сообщений. Делай ноги / Happy Feet (2006) BDRip-AVC

8 | 3

2.18 ГБ

В этой теме нет новых непрочитанных сообщений. Делай ноги / Happy Feet (2006) BDRip-AVC | D

249 | 12

743.03 МБ

В этой теме нет новых непрочитанных сообщений. Делай ноги / Happy Feet (2006) BDRip-AVC от NovaLan

20 | 7

1.97 ГБ

В этой теме нет новых непрочитанных сообщений. Делай ноги / Happy Feet (2006) BDRip от HQCLUB

34 | 3

2.18 ГБ

В этой теме нет новых непрочитанных сообщений. Делай ноги / Happy Feet (2006) BDRip 1080p

73 | 7

4.37 ГБ




Вы не можете начинать темы
Вы не можете отвечать на сообщения
Вы не можете редактировать свои сообщения
Вы не можете удалять свои сообщения
Вы не можете добавлять вложения

Перейти:  
Для Мосгорсуда, Роскомнадзора и рекламодателей: mosgorsud-torrent[собачка]yandex.ru
 Вход
ppkBB3cker v.2 © 2008-2014 @ PPK
[ Time : 0.028s | 14 Queries | GZIP : Off ]

Торрент трекер RUTOR.IN, Не можете зайти на rutor.org? Какой новый адрес рутор? Какое зеркало рутор? Не работает rutor.org и зеркала? Тогда наш торрент специально для вас. Rutor.in неофициальное зеркало rutor. В случае если у Вас заблокирован rutor или вдруг Вы не можете на него зайти, то Вы без труда сможете скачать бесплатно и без рекламы последние новинки кино, игр, сериалов и прочего у нас, на Rutor.in. Не нужно использовать прокси, чтобы зайти на рутор, достаточно воспользоваться нашим ресурсом. Все новые фильмы, игры, сериалы, книги и музыка за 2013 и 2014 годы через торрент бесплатно. Скачивайте фильмы в хорошем качестве, игры для пк, xbox, playstation без регистрации. У нас вы найдете новые Зарубежные сериалы и Русские сериалы 2013, 2014, 2015 годов. Оставайтесь с нами, качайте любимые фильмы, игры, сериалы, книги и музыку.