img image001 image001 image001 image001 image001 image001 image001 image001 image001 image001 image001 image001 image001 image001 image001

Planets Sun Sun Sun
Статистика раздачи
Автор: Nickolas3434 | Размер: 1.97 ГБ | Добавлен: 12 ноя 2015
Раздают: 657    Качают: 81
Скачать торрент
Скачать торрент
Описание торрента

СообщениеДобавлено: 12 ноя 2015 


Информация о фильме
Название: Колобанга. Только для пользователей интернета
Год выхода: 2015
Жанр: мультфильм, короткометражка
О фильме:
Забавные улыбчивые колобки живут в виртуальном мире, где есть все развлечения — музей, театр и даже колесо обозрения. Каждый из персонажей сериала обладает ярким характером и собственными взглядами на жизнь. Одни из них любят работать, а другие — отдыхать и развлекаться. Но чтобы ни случилось, колобки-смайлы никогда не теряют оптимизма…
1 серия
В Колобанге живут забавные смайлы-колобки. Они отвечают за электронную переписку Антона и передают в сообщениях его эмоции. Жизнь в Колобанге весела и беззаботна, но однажды…
Подписывайтесь на наш канал и следите за ходом детективного расследования!
2 серия
Ночью в Колобанге случается такое, что лучше один раз увидеть, чем сто раз прочитать! Давайте скорее запускайте вторую серию и не упустите ни единого момента!
3 серия
А профессор Мегабит оказался не так прост, как кажется. Некоторые колобки говорят, что он этого не делал, но… Подождите, вы еще ничего не знаете? Тогда срочно смотрите 3 серию и решайте, на чьей вы стороне!
4 серия
Прилетели «страшные», устроили переполох, а результата как не было, так и нет. И если бы не Чёлка, то вообще неизвестно, чем бы все это закончилось. А так – надежда все еще есть
5 серия
Ни за что бы не подумал, что именно он все устроил! А дружок-то его все знал и молчал! Нехорошо это, согласитесь? Впрочем, посмотрите серию, может быть, я не прав.
6 серия
Ну, наконец-то! Никогда бы не подумал, что Интернет выглядит именно так! А сколько приключений предстоит пережить нашим друзьям в Интернете! Сколько? Посмотрите серию и посчитайте!
7 серия
А наши друзья-то оказались не робкого десятка – такое провернуть под силу не каждому! Вот только Профессор Мегабит, конечно, подкачал, хотя тут такие новости, что любой подкачает.
8 серия
Чем дальше, тем опаснее и интереснее! Погони, перестрелки, невероятные открытия и захватывающие дух приключения! А Глюк еще умудряется песенки распевать.
9 серия
Теперь уже точно не до шуток. Скоро решится судьба Колобанги. Успеют ли колобки? Смогут ли?.. Давайте смотреть и вместе переживать за наших героев.
10 серия
Развязка! Сейчас вы узнаете, кто, что, почему и зачем.
Подписывайтесь на наш канал и следите за ходом детективного расследования!

Официальный сайт
Страна: Россия
Продолжительность: ~00:13:00 серия
Перевод: Не требуется
Файл
Кодек: h.264 / AAC
Качество: WEBRip 720p
Видео: AVC, 1280x720 (16:9), 25.000 fps, 2 007 Kbps (0.087 bit/pixel)
Звук: AAC LC, 44.1 KHz, 2 ch, 192 Kbps, VBR
General
Complete name : Колобанга - 1 серия.mp4
Format : MPEG-4
Format profile : Base Media / Version 2
Codec ID : mp42
File size : 213 MiB
Duration : 13mn 30s
Overall bit rate mode : Variable
Overall bit rate : 2 201 Kbps
Encoded date : UTC 2015-11-02 06:42:53
Tagged date : UTC 2015-11-02 06:42:53
gsst : 0
gstd : 810050
gssd : B4A7DDA67
gshh : r7---sn-4g57kuez.googlevideo.com
Video
ID : 1
Format : AVC
Format/Info : Advanced Video Codec
Format profile : High@L3.1
Format settings, CABAC : Yes
Format settings, ReFrames : 1 frame
Codec ID : avc1
Codec ID/Info : Advanced Video Coding
Duration : 13mn 30s
Bit rate : 2 007 Kbps
Maximum bit rate : 6 830 Kbps
Width : 1 280 pixels
Height : 720 pixels
Display aspect ratio : 16:9
Frame rate mode : Constant
Frame rate : 25.000 fps
Color space : YUV
Chroma subsampling : 4:2:0
Bit depth : 8 bits
Scan type : Progressive
Bits/(Pixel*Frame) : 0.087
Stream size : 194 MiB (91%)
Tagged date : UTC 2015-11-02 06:43:06
Color primaries : BT.709
Transfer characteristics : BT.709
Matrix coefficients : BT.709
Audio
ID : 2
Format : AAC
Format/Info : Advanced Audio Codec
Format profile : LC
Codec ID : 40
Duration : 13mn 30s
Bit rate mode : Variable
Bit rate : 192 Kbps
Maximum bit rate : 204 Kbps
Channel(s) : 2 channels
Channel positions : Front: L R
Sampling rate : 44.1 KHz
Compression mode : Lossy
Stream size : 18.5 MiB (9%)
Title : IsoMedia File Produced by Google, 5-11-2011
Language : English
Encoded date : UTC 2015-11-02 06:43:00
Tagged date : UTC 2015-11-02 06:43:06



   Похожие торренты   Торрент   Размер 
В этой теме нет новых непрочитанных сообщений. Ужасы интернета / Bad Internet [01x01-08 из 10] (2016) WEBRip 720p от OZZ | P2

2910 | 61

1.37 ГБ

В этой теме нет новых непрочитанных сообщений. Ужасы интернета / Bad Internet [01x01-09 из 10] (2016) WEBRip 720p от OZZ | P2

385 | 56

1.53 ГБ

В этой теме нет новых непрочитанных сообщений. Ужасы интернета / Bad Internet [01x01-06 из 10] (2016) WEBRip 720p от OZZ | P2

1107 | 7

1.09 ГБ

В этой теме нет новых непрочитанных сообщений. Специалист - SharePoint 2010 для пользователей. Уровень 1 (2012) PCRec

31 | 6

1.83 ГБ

В этой теме нет новых непрочитанных сообщений. Панзин Сергей - Видеокурс для начинающих пользователей Linux (2009) HD, CAMRip

3 | 4

524.46 МБ

В этой теме нет новых непрочитанных сообщений. Звезда Интернета / Internet Famous (2016) WEB-DL 720p | L

229 | 51

2.7 ГБ

В этой теме нет новых непрочитанных сообщений. Сборник - Zaycev net. 100 хитов интернета (2015) MP3

315 | 16

878.72 МБ




Вы не можете начинать темы
Вы не можете отвечать на сообщения
Вы не можете редактировать свои сообщения
Вы не можете удалять свои сообщения
Вы не можете добавлять вложения

Перейти:  
Для Мосгорсуда, Роскомнадзора и рекламодателей: mosgorsud-torrent[собачка]yandex.ru
 Вход
ppkBB3cker v.2 © 2008-2014 @ PPK
[ Time : 0.039s | 16 Queries | GZIP : On ]

Торрент трекер RUTOR.IN, Не можете зайти на rutor.org? Какой новый адрес рутор? Какое зеркало рутор? Не работает rutor.org и зеркала? Тогда наш торрент специально для вас. Rutor.in неофициальное зеркало rutor. В случае если у Вас заблокирован rutor или вдруг Вы не можете на него зайти, то Вы без труда сможете скачать бесплатно и без рекламы последние новинки кино, игр, сериалов и прочего у нас, на Rutor.in. Не нужно использовать прокси, чтобы зайти на рутор, достаточно воспользоваться нашим ресурсом. Все новые фильмы, игры, сериалы, книги и музыка за 2013 и 2014 годы через торрент бесплатно. Скачивайте фильмы в хорошем качестве, игры для пк, xbox, playstation без регистрации. У нас вы найдете новые Зарубежные сериалы и Русские сериалы 2013, 2014, 2015 годов. Оставайтесь с нами, качайте любимые фильмы, игры, сериалы, книги и музыку.