img image001 image001 image001 image001 image001 image001 image001 image001 image001 image001 image001 image001 image001 image001 image001

Planets Sun Sun Sun
Статистика раздачи
Автор: Nickolas3434 | Размер: 3.93 ГБ | Добавлен: 14 ноя 2015
Раздают: 49    Качают: 6
Скачать торрент
Скачать торрент
Описание торрента

СообщениеДобавлено: 14 ноя 2015 


Информация о фильме
Название: Делай ноги 2
Оригинальное название: Happy Feet Two
Год выхода: 2011
Жанр: мультфильм, комедия, семейный
Режиссер: Джордж Миллер / George Miller
В ролях: Элайджа Вуд, Робин Уильямс, Хэнк Азария, Пинк, Брэд Питт, Мэтт Дэймон, София Вергара, Карлос Алазраки, Ломбардо Бойяр, Джефф Гарсиа
Роли дублировали: Гоша Куценко, Борис Шувалов, Юрий Брежнев, Слава, Всеволод Кузнецов
О фильме:
Неутомимый пингвин Мамбл, некогда покоривший своим блестящим танцорским талантом целое племя императорских пингвинов, стал отцом. Его малыш — Эрик, в точности такой же свободолюбивый и независимый, как и папа, но в своих амбициях и авантюрах, несмотря на свой юный возраст, уже способен дать хорошую фору отцу и всем окружающим.
Кумиром малыша становится Могучий Свен, — пингвин, умеющий летать. Во всём следуя и подражая ему, Эрик ни в какую не собирается учиться танцевать, вопреки планам и убеждениям Мамбла. Однако, настоящие трудности и проблемы состоят в другом, и, чтобы таковые преодолеть не без успеха, Мамблу и Эрику предстоит забыть о предрассудках и разногласиях, встав на защиту общих интересов и идеалов…

Страна: Австралия
Продолжительность: 01:39:31
Перевод: Профессиональный (дублированный)
Файл
Кодек: h.264
Качество: BDRip 720р от SuperMin
Видео: 1280x544 (2.35:1), 4448 kbps, 23.976 fps
Звук:
Русский (AC-3, 6ch, 640 kbps)
Английский (AC-3, 6ch, 448 kbps)
Субтитры: Русские, английские
x264 [info]: frame I:1047 Avg QP:17.57 size: 97329
x264 [info]: frame P:38259 Avg QP:19.97 size: 41865
x264 [info]: frame B:103831 Avg QP:22.23 size: 16351
x264 [info]: consecutive B-frames: 3.7% 4.6% 9.0% 52.8% 11.3% 15.9% 1.3% 1.3% 0.2%
encoded 143137 frames, 1.82 fps, 4557.96 kb/s
General
Unique ID : 172373226035935655928338851918278185640 (0x81ADE0320672C117B7E04DE2E14E52A8)
Complete name : E:МУЛЬТЫДЕЛАЙ НОГИДелай.Ноги-2.2011.x264.BDRip.720p.DUB.mkv
Format : Matroska
Format version : Version 4 / Version 2
File size : 3.93 GiB
Duration : 1h 39mn
Overall bit rate : 5 648 Kbps
Movie name : Happy Feet Two 2011
Encoded date : UTC 2015-11-12 15:07:44
Writing application : mkvmerge v8.3.0 ('Over the Horizon') 64bit
Writing library : libebml v1.3.1 + libmatroska v1.4.2
Attachements : Happy Feet Two_front.600.jpg
DURATION : 01:39:30.944000000
NUMBER_OF_FRAMES : 186592
NUMBER_OF_BYTES : 334372864
_STATISTICS_WRITING_APP : mkvmerge v8.3.0 ('Over the Horizon') 64bit
_STATISTICS_WRITING_DATE_UT : 2015-11-12 15:07:44
_STATISTICS_TAGS : BPS DURATION NUMBER_OF_FRAMES NUMBER_OF_BYTES
Video
ID : 1
Format : AVC
Format/Info : Advanced Video Codec
Format profile : High@L4.1
Format settings, CABAC : Yes
Format settings, ReFrames : 10 frames
Codec ID : V_MPEG4/ISO/AVC
Duration : 1h 39mn
Bit rate : 4 448 Kbps
Width : 1 280 pixels
Height : 544 pixels
Display aspect ratio : 2.35:1
Frame rate mode : Constant
Frame rate : 23.976 fps
Color space : YUV
Chroma subsampling : 4:2:0
Bit depth : 8 bits
Scan type : Progressive
Bits/(Pixel*Frame) : 0.266
Stream size : 3.09 GiB (79%)
Writing library : x264 core 146 r2538 121396c
Encoding settings : cabac=1 / ref=10 / deblock=1:-1:-1 / analyse=0x3:0x113 / me=umh / subme=11 / psy=1 / psy_rd=1.00:0.00 / mixed_ref=1 / me_range=24 / chroma_me=1 / trellis=2 / 8x8dct=1 / cqm=0 / deadzone=21,11 / fast_pskip=0 / chroma_qp_offset=-2 / threads=3 / lookahead_threads=1 / sliced_threads=0 / nr=0 / decimate=1 / interlaced=0 / bluray_compat=0 / constrained_intra=0 / bframes=8 / b_pyramid=2 / b_adapt=2 / b_bias=0 / direct=3 / weightb=1 / open_gop=0 / weightp=2 / keyint=240 / keyint_min=22 / scenecut=40 / intra_refresh=0 / rc_lookahead=40 / rc=crf / mbtree=0 / crf=18.0 / qcomp=0.60 / qpmin=0 / qpmax=69 / qpstep=4 / vbv_maxrate=62500 / vbv_bufsize=78125 / crf_max=0.0 / nal_hrd=none / filler=0 / ip_ratio=1.40 / pb_ratio=1.30 / aq=1:1.00
Default : Yes
Forced : No
Audio #1
ID : 2
Format : AC-3
Format/Info : Audio Coding 3
Mode extension : CM (complete main)
Format settings, Endianness : Big
Codec ID : A_AC3
Duration : 1h 39mn
Bit rate mode : Constant
Bit rate : 640 Kbps
Channel(s) : 6 channels
Channel positions : Front: L C R, Side: L R, LFE
Sampling rate : 48.0 KHz
Compression mode : Lossy
Stream size : 456 MiB (11%)
Title : Дубляж
Language : Russian
Default : Yes
Forced : No
Audio #2
ID : 5
Format : AC-3
Format/Info : Audio Coding 3
Mode extension : CM (complete main)
Format settings, Endianness : Big
Codec ID : A_AC3
Duration : 1h 39mn
Bit rate mode : Constant
Bit rate : 448 Kbps
Channel(s) : 6 channels
Channel positions : Front: L C R, Side: L R, LFE
Sampling rate : 48.0 KHz
Compression mode : Lossy
Stream size : 319 MiB (8%)
Language : English
Default : No
Forced : No
Text #1
ID : 3
Format : UTF-8
Codec ID : S_TEXT/UTF8
Codec ID/Info : UTF-8 Plain Text
Language : Russian
Default : No
Forced : No
Text #2
ID : 4
Format : UTF-8
Codec ID : S_TEXT/UTF8
Codec ID/Info : UTF-8 Plain Text
Language : English
Default : No
Forced : No



   Похожие торренты   Торрент   Размер 
В этой теме нет новых непрочитанных сообщений. Делай ноги / Happy Feet (2006) BDRip 720 от SuperMin

144 | 20

2.38 ГБ

В этой теме нет новых непрочитанных сообщений. Делай ноги / Happy Feet (2006) BDRip 720 от SuperMin | D

37 | 4

3.06 ГБ

В этой теме нет новых непрочитанных сообщений. Делай ноги 2 / Happy Feet Two (2011) BDRip 1080p

39 | 10

4.37 ГБ

В этой теме нет новых непрочитанных сообщений. Делай ноги 2 / Happy Feet Two (2011) BDRip 1080p | 3D-Video

5 | 2

9.87 ГБ

В этой теме нет новых непрочитанных сообщений. Делай ноги 2 / Happy Feet Two (2011) BDRip 720p by ELiTE

0 | 2

6.48 ГБ

В этой теме нет новых непрочитанных сообщений. OST - Делай ноги 2 / Happy Feet Two from AGR (2011) MP3

3 | 4

169.39 МБ

В этой теме нет новых непрочитанных сообщений. Делай ноги 2 / Happy Feet Two (2011) DVD5

2 | 3

4.35 ГБ




Вы не можете начинать темы
Вы не можете отвечать на сообщения
Вы не можете редактировать свои сообщения
Вы не можете удалять свои сообщения
Вы не можете добавлять вложения

Перейти:  
Для Мосгорсуда, Роскомнадзора и рекламодателей: mosgorsud-torrent[собачка]yandex.ru
 Вход
ppkBB3cker v.2 © 2008-2014 @ PPK
[ Time : 0.102s | 14 Queries | GZIP : Off ]

Торрент трекер RUTOR.IN, Не можете зайти на rutor.org? Какой новый адрес рутор? Какое зеркало рутор? Не работает rutor.org и зеркала? Тогда наш торрент специально для вас. Rutor.in неофициальное зеркало rutor. В случае если у Вас заблокирован rutor или вдруг Вы не можете на него зайти, то Вы без труда сможете скачать бесплатно и без рекламы последние новинки кино, игр, сериалов и прочего у нас, на Rutor.in. Не нужно использовать прокси, чтобы зайти на рутор, достаточно воспользоваться нашим ресурсом. Все новые фильмы, игры, сериалы, книги и музыка за 2013 и 2014 годы через торрент бесплатно. Скачивайте фильмы в хорошем качестве, игры для пк, xbox, playstation без регистрации. У нас вы найдете новые Зарубежные сериалы и Русские сериалы 2013, 2014, 2015 годов. Оставайтесь с нами, качайте любимые фильмы, игры, сериалы, книги и музыку.