img image001 image001 image001 image001 image001 image001 image001 image001 image001 image001 image001 image001 image001 image001 image001

Planets Sun Sun Sun
Статистика раздачи
Автор: Nickolas3434 | Размер: 826.72 МБ | Добавлен: 14 ноя 2015
Раздают: 592    Качают: 55
Скачать торрент
Скачать торрент
Описание торрента

СообщениеДобавлено: 14 ноя 2015 


Информация о фильме
Название: Гравити Фолз. Маленькие истории (1-17 серии)
Оригинальное название: Gravity Falls. Shorts
Страна: США
Год выхода: 2013-2014
Жанр: комедия, мистика, приключения
Режиссер: Джон Ошима, Аарон Спрингер, Джо Питт / John Oshima, Aaron Springer, Joe Pitt
Роли озвучивали: Антон Колесников, Наталья Терешкова, Владимир Герасимов
О фильме: Мультсериал повествует о приключениях двенадцатилетних близнецов (брата и сестры) Диппера и Мэйбл, чьи летние планы рушатся, когда родители отправляют их в далёкий городок Гравити Фолз, штат Орегон, к Дяде Стэну. В городе творятся странные вещи, в которых им предстоит разобраться.
Продолжительность: 17 х ~00:02:20
Перевод: Профессиональный (полное дублирование) - Студия "Кириллица" (По заказу канала Disney)
Субтитры: отсутствуют
Файл
Формат: MKV
Качество: WEBRip 1080p
Видео: 1920 x 1080 (16:9) at 25.000 fps, AVC (x264), High@L4.0, 3110 kbps avg, 0.060 bit/pixel
Аудио #1: AC-3, 48.0 KHz, 2 channels, 192 Kbps | русский, дубляж |
Аудио #2: AC-3, 48.0 KHz, 2 channels, 192 Kbps | английский, оригинал |
Автор идеи: Алекс Хирш / Alex Hirsch
Синхронизация дорожек: *Sergeant_am*
Анамалии Диппера / Dipper's Guide to the Unexplained
01. Конфетный монстро
02. Тату Стена
03. Почтовый ящик
04. Левша
05. Зуб
06. Прячущийся
Советы Мейбл / Mabel’s Guide to Life
07. Советы Мейбл о свиданиях
08. Советы Мейбл о стикерах
09. Советы Мейбл о моде
10. Советы Мейбл о цвете
11. Советы Мейбл о искусстве
Ремонт с Зусом / Fixin' It with Soos
12. Гольф-машина
13. Часы с кукушкой
Общественное телевидение Гравити Фолз / TV Shorts
14. ОТВ Гравити Фолз: выпуск 1
15. ОТВ Гравити Фолз: выпуск 2
Журнал памятных событий Мейбл / Mabel's Scrapbook
16. Поход в кино
17. Поход в зоопарк
Общее
Полное имя : Gravity Falls.Shorts.1080p.WEBRip Gravity Falls.Shorts.E01.1080p.WEBRip.DD.2.0.mkv
Формат : Matroska
Размер файла : 60,4 Мбайт
Продолжительность : 2 м. 22 с.
Общий поток : 3565 Кбит/сек
Дата кодирования : UTC 2015-05-24 18:21:54
Программа кодирования : mkvmerge v4.0.0 ('The Stars were mine') сборка от Jun 6 2010 16:18:42
Библиотека кодирования : libebml v1.0.0 + libmatroska v1.0.0
Видео
Идентификатор : 1
Формат : AVC
Формат/Информация : Advanced Video Codec
Профиль формата : High@L4.0
Параметр CABAC формата : Да
Параметр ReFrames формата : 3 кадры
Параметры GOP формата : M=1, N=42
Идентификатор кодека : V_MPEG4/ISO/AVC
Продолжительность : 2 м. 22 с.
Битрейт : 3110 Кбит/сек
Ширина : 1920 пикс.
Высота : 1080 пикс.
Соотношение сторон : 16:9
Режим частоты кадров : Переменный
Частота кадров : 25,000 кадр/сек
Цветовое пространство : YUV
Подвыборка цветности : 4:2:0
Битовая глубина : 8 бит
Тип развёртки : Прогрессивная
Бит/(Пиксели*Кадры) : 0.060
Размер потока : 52,7 Мбайт (87%)
Аудио #1
Идентификатор : 2
Формат : AC-3
Формат/Информация : Audio Coding 3
Расширение режима : CM (complete main)
Идентификатор кодека : A_AC3
Продолжительность : 2 м. 22 с.
Вид битрейта : Постоянный
Битрейт : 192 Кбит/сек
Канал(ы) : 2 канала(ов)
Расположение каналов : Front: L R
Частота : 48,0 КГц
Битовая глубина : 16 бит
Метод сжатия : С потерями
Размер потока : 3,25 Мбайт (5%)
Язык : Russian
Аудио #2
Идентификатор : 3
Формат : AC-3
Формат/Информация : Audio Coding 3
Расширение режима : CM (complete main)
Идентификатор кодека : A_AC3
Продолжительность : 2 м. 22 с.
Вид битрейта : Постоянный
Битрейт : 192 Кбит/сек
Канал(ы) : 2 канала(ов)
Расположение каналов : Front: L R
Частота : 48,0 КГц
Битовая глубина : 16 бит
Метод сжатия : С потерями
Размер потока : 3,25 Мбайт (5%)
Язык : English





   Похожие торренты   Торрент   Размер 
В этой теме нет новых непрочитанных сообщений. Гравити Фолз / Gravity Falls [S01] (2012-2013) WEB-DLRip 1080p | D

240 | 61

17.66 ГБ

В этой теме нет новых непрочитанных сообщений. Гравити Фолз / Gravity Falls [02x01-17 из 21] (2012 -) WEB-DL 1080p

168 | 379

28.72 ГБ

В этой теме нет новых непрочитанных сообщений. Гравити Фолз / Gravity Falls [s02] (2012-2016) WEB-DL 1080p | D

2175 | 647

18.28 ГБ

В этой теме нет новых непрочитанных сообщений. Гравити Фолз / Gravity Falls [S01] (2013) WEB-DL 720p | D

1113 | 222

12.79 ГБ

В этой теме нет новых непрочитанных сообщений. Гравити Фолз / Gravity Falls [S01-02] (2012-2016) WEBDL-HEVC 1080p | D, P1

20 | 19

12.08 ГБ

В этой теме нет новых непрочитанных сообщений. Гравити Фолз / Gravity Falls [02x01-08 из 20] (2014) WEB-DL 720p | L

52 | 7

5.76 ГБ

В этой теме нет новых непрочитанных сообщений. Грэвити Фоллс / Гравити Фолз / Gravity Falls [S02] (2014-2015) WEB-DL 720р | L1

1123 | 170

6.47 ГБ




Вы не можете начинать темы
Вы не можете отвечать на сообщения
Вы не можете редактировать свои сообщения
Вы не можете удалять свои сообщения
Вы не можете добавлять вложения

Перейти:  
Для Мосгорсуда, Роскомнадзора и рекламодателей: mosgorsud-torrent[собачка]yandex.ru
 Вход
ppkBB3cker v.2 © 2008-2014 @ PPK
[ Time : 0.033s | 15 Queries | GZIP : Off ]

cron