img image001 image001 image001 image001 image001 image001 image001 image001 image001 image001 image001 image001 image001 image001 image001

Planets Sun Sun Sun
Статистика раздачи
Автор: Nickolas3434 | Размер: 1.99 ГБ | Добавлен: 16 ноя 2015
Раздают: 368    Качают: 32
Скачать торрент
Скачать торрент
Описание торрента

СообщениеДобавлено: 16 ноя 2015 


Информация о фильме
Название: Кунг-фу Панда: Праздничный выпуск
Оригинальное название: Kung Fu Panda Holiday
Год выхода: 2010
Жанр: Комедия, семейный, мультфильм, короткометражный
Режиссер: Тим Джонсон
В ролях: Джек Блэк, Дастин Хоффман, Анджелина Джоли, Сет Роген, Люси Лью, Дэвид Кросс, Джеймс Хонг, Джек МакБрайер, Дэн Фоглер, Джеки Чан
О фильме:
Каждый год По и его отец развешивают игрушки и вместе готовят суп с лапшой для жителей своей деревни. Но в этом году Шифу сообщает По, что он, как воин дракона, обязан устроить праздник в нефритовом дворце. По разрывается между обязанностями воина дракона и семейной традицией.

Страна: США
Студия: DreamWorks Animation
Продолжительность: 00:25:41
Перевод: Дублированный + любительский многоголосый + любительский одноголосый + оригинал
Файл
Кодек: MPEG-4 AVC
Качество: BDRip 1080p
Видео: 7500 Кбит/с, 1920x1080, 23.976 кадр/с
Аудио #1: Русский (AC3, 2 ch, 192 Кбит/с) | Дублированный
Аудио #2: Русский (DTS, 6 ch, 1509 Кбит/с) | Любительский многоголосый (SkyeFilmTV)
Аудио #3: Русский (AC3, 6 ch, 384 Кбит/с) | Любительский одноголосый (zamez)
Аудио #4: АНглийский DTS, 6 ch, 1509 Кбит/с)
Субтитры: Русские, английские
Семпл
Complete name : Kung.Fu.Panda.Holiday.2010.x264.BDRip.(1080p)-MediaClub.mkv
Format : Matroska
Format version : Version 4 / Version 2
File size : 1.99 GiB
Duration : 25mn 41s
Overall bit rate : 11.1 Mbps
Movie name : = MediaClub = rip by Painter
Encoded date : UTC 2015-11-11 14:07:40
Writing application : mkvmerge v7.8.0 ('River Man') 32bit built on Mar 27 2015 16:18:02
Writing library : libebml v1.3.1 + libmatroska v1.4.2
DURATION : 00:20:46.370000000
NUMBER_OF_FRAMES : 469
NUMBER_OF_BYTES : 20261
_STATISTICS_WRITING_APP : mkvmerge v7.8.0 ('River Man') 32bit built on Mar 27 2015 16:18:02
_STATISTICS_WRITING_DATE_UTC : 2015-11-11 14:07:40
_STATISTICS_TAGS : BPS DURATION NUMBER_OF_FRAMES NUMBER_OF_BYTES
Video
ID : 1
Format : AVC
Format/Info : Advanced Video Codec
Format profile : High@L4.1
Format settings, CABAC : Yes
Format settings, ReFrames : 4 frames
Codec ID : V_MPEG4/ISO/AVC
Duration : 25mn 41s
Bit rate : 7 500 Kbps
Width : 1 920 pixels
Height : 1 080 pixels
Display aspect ratio : 16:9
Frame rate mode : Constant
Frame rate : 23.976 fps
Color space : YUV
Chroma subsampling : 4:2:0
Bit depth : 8 bits
Scan type : Progressive
Bits/(Pixel*Frame) : 0.151
Stream size : 1.31 GiB (66%)
Writing library : x264 core 144 r2525 40bb568
Encoding settings : cabac=1 / ref=4 / deblock=1:-3:-3 / analyse=0x3:0x133 / me=tesa / subme=11 / psy=1 / psy_rd=1.00:0.20 / mixed_ref=1 / me_range=32 / chroma_me=1 / trellis=2 / 8x8dct=1 / cqm=0 / deadzone=21,11 / fast_pskip=0 / chroma_qp_offset=-3 / threads=6 / lookahead_threads=1 / sliced_threads=0 / nr=0 / decimate=0 / interlaced=0 / bluray_compat=0 / constrained_intra=0 / bframes=8 / b_pyramid=2 / b_adapt=2 / b_bias=0 / direct=3 / weightb=1 / open_gop=0 / weightp=2 / keyint=240 / keyint_min=23 / scenecut=40 / intra_refresh=0 / rc=2pass / mbtree=0 / bitrate=7500 / ratetol=1.0 / qcomp=0.60 / qpmin=0 / qpmax=69 / qpstep=4 / cplxblur=20.0 / qblur=0.5 / ip_ratio=1.40 / pb_ratio=1.30 / aq=3:0.90
Language : English
Default : Yes
Forced : No
DURATION : 00:25:41.793000000
NUMBER_OF_FRAMES : 36966
NUMBER_OF_BYTES : 1444333021
_STATISTICS_WRITING_APP : mkvmerge v7.8.0 ('River Man') 32bit built on Mar 27 2015 16:18:02
_STATISTICS_WRITING_DATE_UTC : 2015-11-11 14:07:40
_STATISTICS_TAGS : BPS DURATION NUMBER_OF_FRAMES NUMBER_OF_BYTES
Audio #1
ID : 2
Format : AC-3
Format/Info : Audio Coding 3
Mode extension : CM (complete main)
Format settings, Endianness : Big
Codec ID : A_AC3
Duration : 25mn 41s
Bit rate mode : Constant
Bit rate : 192 Kbps
Channel(s) : 2 channels
Channel positions : Front: L R
Sampling rate : 48.0 KHz
Bit depth : 16 bits
Compression mode : Lossy
Stream size : 35.3 MiB (2%)
Title : Дубляж
Language : Russian
Default : Yes
Forced : No
Audio #2
ID : 3
Format : DTS
Format/Info : Digital Theater Systems
Mode : 16
Format settings, Endianness : Big
Codec ID : A_DTS
Duration : 25mn 41s
Bit rate mode : Constant
Bit rate : 1 509 Kbps
Channel(s) : 6 channels
Channel positions : Front: L C R, Side: L R, LFE
Sampling rate : 48.0 KHz
Bit depth : 24 bits
Compression mode : Lossy
Stream size : 277 MiB (14%)
Title : Многоголосый (SkyeFilmTV)
Language : Russian
Default : No
Forced : No
Audio #3
ID : 4
Format : AC-3
Format/Info : Audio Coding 3
Mode extension : CM (complete main)
Format settings, Endianness : Big
Codec ID : A_AC3
Duration : 25mn 41s
Bit rate mode : Constant
Bit rate : 384 Kbps
Channel(s) : 6 channels
Channel positions : Front: L C R, Side: L R, LFE
Sampling rate : 48.0 KHz
Bit depth : 16 bits
Compression mode : Lossy
Stream size : 70.6 MiB (3%)
Title : Zamez
Language : Russian
Default : No
Forced : No
Audio #4
ID : 5
Format : DTS
Format/Info : Digital Theater Systems
Mode : 16
Format settings, Endianness : Big
Codec ID : A_DTS
Duration : 25mn 41s
Bit rate mode : Constant
Bit rate : 1 509 Kbps
Channel(s) : 6 channels
Channel positions : Front: L C R, Side: L R, LFE
Sampling rate : 48.0 KHz
Bit depth : 24 bits
Compression mode : Lossy
Stream size : 277 MiB (14%)
Language : English
Default : No
Forced : No
Text #1
ID : 6
Format : UTF-8
Codec ID : S_TEXT/UTF8
Codec ID/Info : UTF-8 Plain Text
Title : SkyeFilmTV
Language : Russian
Default : No
Forced : No
Text #2
ID : 7
Format : UTF-8
Codec ID : S_TEXT/UTF8
Codec ID/Info : UTF-8 Plain Text
Language : English
Default : No
Forced : No

[

Релиз от: |



   Похожие торренты   Торрент   Размер 
В этой теме нет новых непрочитанных сообщений. Кунг-фу Панда: Праздничный выпуск / Kung Fu Panda Holiday (2010) BDRip-AVC от MediaClub | D, L, L1

257 | 35

804 МБ

В этой теме нет новых непрочитанных сообщений. Кунг-фу Панда: Праздничный выпуск / Kung Fu Panda Holiday Special (2010) BDRip от New-Team | D | СТС

51 | 2

386.13 МБ

В этой теме нет новых непрочитанных сообщений. Кунг-фу Панда: Праздничный выпуск / Kung Fu Panda Holiday Special (2010) BDRip 720 от SuperMin

99 | 6

1.01 ГБ

В этой теме нет новых непрочитанных сообщений. Кунг-фу Панда: Праздничный выпуск / Kung Fu Panda Holiday Special (2010) HDTVRip-AVC

141 | 15

454.04 МБ

В этой теме нет новых непрочитанных сообщений. Кунг-Фу Панда: Праздничный выпуск / Kung Fu Panda Holiday Special (2010) HDTVRip

8 | 3

475.36 МБ

В этой теме нет новых непрочитанных сообщений. Кунг-Фу Панда: Праздничный выпуск / Kung Fu Panda Holiday Special (2010) HDTVRip от F-Torrent

55 | 4

387.74 МБ

В этой теме нет новых непрочитанных сообщений. Кунг-фу Панда 2 / Kung Fu Panda 2 (2011) BDRip 1080p

928 | 46

4.37 ГБ




Вы не можете начинать темы
Вы не можете отвечать на сообщения
Вы не можете редактировать свои сообщения
Вы не можете удалять свои сообщения
Вы не можете добавлять вложения

Перейти:  
Для Мосгорсуда, Роскомнадзора и рекламодателей: mosgorsud-torrent[собачка]yandex.ru
 Вход
ppkBB3cker v.2 © 2008-2014 @ PPK
[ Time : 0.024s | 14 Queries | GZIP : Off ]

Торрент трекер RUTOR.IN, Не можете зайти на rutor.org? Какой новый адрес рутор? Какое зеркало рутор? Не работает rutor.org и зеркала? Тогда наш торрент специально для вас. Rutor.in неофициальное зеркало rutor. В случае если у Вас заблокирован rutor или вдруг Вы не можете на него зайти, то Вы без труда сможете скачать бесплатно и без рекламы последние новинки кино, игр, сериалов и прочего у нас, на Rutor.in. Не нужно использовать прокси, чтобы зайти на рутор, достаточно воспользоваться нашим ресурсом. Все новые фильмы, игры, сериалы, книги и музыка за 2013 и 2014 годы через торрент бесплатно. Скачивайте фильмы в хорошем качестве, игры для пк, xbox, playstation без регистрации. У нас вы найдете новые Зарубежные сериалы и Русские сериалы 2013, 2014, 2015 годов. Оставайтесь с нами, качайте любимые фильмы, игры, сериалы, книги и музыку.