img image001 image001 image001 image001 image001 image001 image001 image001 image001 image001 image001 image001 image001 image001 image001

Planets Sun Sun Sun
Статистика раздачи
Автор: Nickolas3434 | Размер: 5.69 ГБ | Добавлен: 16 ноя 2015
Раздают: 924    Качают: 174
Скачать торрент
Скачать торрент
Описание торрента

СообщениеДобавлено: 16 ноя 2015 


Информация о фильме
Название: Миньоны
Оригинальное название: Minions
Год выхода: 2015
Жанр: мультфильм, комедия, семейный
Режиссер: Кайл Балда, Пьер Соффин
В ролях: Сандра Буллок, Джон Хэмм, Майкл Китон, Эллисон Дженни, Стив Куган, Дженнифер Сондерс, Джеффри Раш, Стив Карелл, Пьер Коффан, Кэти Миксон
О фильме:
Миньоны живут на планете на пару миллионов лет дольше нас. У них одна навязчивая идея - служить самой Гадкой личности из имеющихся в наличии. Динозавры, фараоны, Дракула, Наполеон - все они оказались недолговечны. И тогда миньоны рванули в Нью-Йорк. Их ждут деньги, власть, роковая суперзлодейка Скарлет Оверкилл и, конечно же, вкуснейшая «банана»! Во всяком случае, так им кажется.

Страна: США
Студия: Illumination Entertainment
Продолжительность: 01:30:53
Перевод: Профессиональный (дублированный) Blu-ray CEE
Файл
Формат: Matroska
Видео: 1280x692 at 23.976 fps, x264@L4.1, ~6851 kbps avg
Аудио#1: Russian: 48 kHz, AC3, 3/2 (L,C,R,l,r) + LFE ch, ~640.00 kbps avg |Дубляж, Blu-ray CEE|
Аудио#2: Ukrainian: 48 kHz, AC3, 3/2 (L,C,R,l,r) + LFE ch, ~640.00 kbps avg |Дубляж, Blu-ray CEE|
Аудио#3: English: 48 kHz, AC3, 3/2 (L,C,R,l,r) + LFE ch, ~640.00 kbps avg
Субтитры: Русские, английские, украинские
Общее
Уникальный идентификатор : 238464607621761536979886433597588502645 (0xB3669CE3B4F219A4B175098C78A7F875)
Полное имя : Minions.2015.BDRip.720p.mkv
Формат : Matroska
Версия формата : Version 2
Размер файла : 5,69 Гбайт
Продолжительность : 1 ч. 30 м.
Общий поток : 8950 Кбит/сек
Название фильма : Minions (2015)
Дата кодирования : UTC 2015-11-15 03:11:21
Программа кодирования : mkvmerge v7.9.0 ('Birds') 64bit
Библиотека кодирования : libebml v1.3.1 + libmatroska v1.4.2
Видео
Идентификатор : 1
Формат : AVC
Формат/Информация : Advanced Video Codec
Профиль формата : High@L4.1
Параметр CABAC формата : Да
Параметр ReFrames формата : 9 кадров
Идентификатор кодека : V_MPEG4/ISO/AVC
Продолжительность : 1 ч. 30 м.
Битрейт : 6851 Кбит/сек
Ширина : 1280 пикселей
Высота : 692 пикселя
Соотношение сторон : 1,85:1
Режим частоты кадров : Постоянный
Частота кадров : 23,976 кадра/сек
Цветовое пространство : YUV
Субдискретизация насыщенности : 4:2:0
Битовая глубина : 8 бит
Тип развёртки : Прогрессивная
Бит/(Пиксели*Кадры) : 0.323
Размер потока : 4,35 Гбайт (77%)
Библиотека кодирования : x264 core 142 r2431+42 c69a006 tMod [8-bit@4:2:0 X86_64]
Настройки программы : cabac=1 / ref=9 / deblock=1:-3:-3 / analyse=0x3:0x133 / me=umh / subme=11 / psy=1 / fade_compensate=0.00 / psy_rd=1.05:0.00 / mixed_ref=1 / me_range=32 / chroma_me=1 / trellis=2 / 8x8dct=1 / cqm=0 / deadzone=21,11 / fast_pskip=0 / chroma_qp_offset=-2 / threads=12 / lookahead_threads=3 / sliced_threads=0 / nr=0 / decimate=0 / interlaced=0 / bluray_compat=0 / constrained_intra=0 / fgo=0 / bframes=10 / b_pyramid=2 / b_adapt=2 / b_bias=0 / direct=3 / weightb=1 / open_gop=0 / weightp=2 / keyint=250 / keyint_min=23 / scenecut=40 / intra_refresh=0 / rc_lookahead=60 / rc=crf / mbtree=0 / crf=16.7000 / qcomp=0.55 / qpmin=0:0:0 / qpmax=69:69:69 / qpstep=4 / vbv_maxrate=62500 / vbv_bufsize=78125 / crf_max=0.0 / nal_hrd=none / filler=0 / ip_ratio=1.30 / pb_ratio=1.20 / aq=3:0.83 / aq-sensitivity=10.00 / aq-factor=1.00:1.00:1.00 / aq2=0 / aq3=0 / zones=48,431,crf=13.5/602,789,crf=14/8548,8652,crf=13.5/22414,22678,crf=13/22855,22885,crf=13/23036,23092,crf=13/23916,23958,crf=13/24279,24338,crf=13/27918,28032,crf=13.5/28123,28198,crf=13.5/33417,33621,crf=13.0
Default : Да
Forced : Нет
Цветовой диапазон : Limited
Коэффициенты матрицы : BT.709
Аудио #1
Идентификатор : 2
Формат : AC-3
Формат/Информация : Audio Coding 3
Расширение режима : CM (complete main)
Параметр Endianness формата : Big
Идентификатор кодека : A_AC3
Продолжительность : 1 ч. 30 м.
Вид битрейта : Постоянный
Битрейт : 640 Кбит/сек
Каналы : 6 каналов
Расположение каналов : Front: L C R, Side: L R, LFE
Частота : 48,0 КГц
Метод сжатия : С потерями
Размер потока : 416 Мбайт (7%)
Язык : Russian
Default : Да
Forced : Нет
Аудио #2
Идентификатор : 3
Формат : AC-3
Формат/Информация : Audio Coding 3
Расширение режима : CM (complete main)
Параметр Endianness формата : Big
Идентификатор кодека : A_AC3
Продолжительность : 1 ч. 30 м.
Вид битрейта : Постоянный
Битрейт : 640 Кбит/сек
Каналы : 6 каналов
Расположение каналов : Front: L C R, Side: L R, LFE
Частота : 48,0 КГц
Метод сжатия : С потерями
Размер потока : 416 Мбайт (7%)
Язык : Ukrainian
Default : Нет
Forced : Нет
Аудио #3
Идентификатор : 4
Формат : AC-3
Формат/Информация : Audio Coding 3
Расширение режима : CM (complete main)
Параметр Endianness формата : Big
Идентификатор кодека : A_AC3
Продолжительность : 1 ч. 30 м.
Вид битрейта : Постоянный
Битрейт : 640 Кбит/сек
Каналы : 6 каналов
Расположение каналов : Front: L C R, Side: L R, LFE
Частота : 48,0 КГц
Метод сжатия : С потерями
Размер потока : 416 Мбайт (7%)
Язык : English
Default : Нет
Forced : Нет
Текст #1
Идентификатор : 5
Формат : UTF-8
Идентификатор кодека : S_TEXT/UTF8
Идентификатор кодека/Информация : UTF-8 Plain Text
Заголовок : Forced
Язык : Russian
Default : Да
Forced : Нет
Текст #2
Идентификатор : 6
Формат : UTF-8
Идентификатор кодека : S_TEXT/UTF8
Идентификатор кодека/Информация : UTF-8 Plain Text
Заголовок : Full
Язык : Russian
Default : Нет
Forced : Нет
Текст #3
Идентификатор : 7
Формат : UTF-8
Идентификатор кодека : S_TEXT/UTF8
Идентификатор кодека/Информация : UTF-8 Plain Text
Язык : Ukrainian
Default : Нет
Forced : Нет
Текст #4
Идентификатор : 8
Формат : UTF-8
Идентификатор кодека : S_TEXT/UTF8
Идентификатор кодека/Информация : UTF-8 Plain Text
Язык : English
Default : Нет
Forced : Нет
Текст #5
Идентификатор : 9
Формат : UTF-8
Идентификатор кодека : S_TEXT/UTF8
Идентификатор кодека/Информация : UTF-8 Plain Text
Заголовок : SDH
Язык : English
Default : Нет
Forced : Нет
Меню
00:00:00.000 : en:00:00:00.000
00:05:39.839 : en:00:05:39.839
00:11:28.938 : en:00:11:28.938
00:16:55.139 : en:00:16:55.139
00:22:28.430 : en:00:22:28.430
00:26:59.034 : en:00:26:59.034
00:32:54.639 : en:00:32:54.639
00:37:28.872 : en:00:37:28.872
00:40:58.831 : en:00:40:58.831
00:45:29.310 : en:00:45:29.310
00:49:24.086 : en:00:49:24.086
00:53:43.053 : en:00:53:43.053
00:57:04.921 : en:00:57:04.921
01:01:36.943 : en:01:01:36.943
01:05:54.701 : en:01:05:54.701
01:07:55.238 : en:01:07:55.238
01:11:19.150 : en:01:11:19.150
01:15:32.653 : en:01:15:32.653
01:21:12.826 : en:01:21:12.826
01:28:24.758 : en:01:28:24.758



   Похожие торренты   Торрент   Размер 
В этой теме нет новых непрочитанных сообщений. Миньоны / Minions (2015) BDRip 720p от Scarabey | Лицензия

1262 | 72

5.16 ГБ

В этой теме нет новых непрочитанных сообщений. Миньоны / Minions (2015) BDRip 720p от HELLYWOOD | Лицензия

489 | 21

5.37 ГБ

В этой теме нет новых непрочитанных сообщений. Миньоны / Minions (2015) BDRip-AVC | D | Лицензия

726 | 26

744.85 МБ

В этой теме нет новых непрочитанных сообщений. Миньоны / Minions (2015) BDRip от HQCLUB | Лицензия

1573 | 58

1.45 ГБ

В этой теме нет новых непрочитанных сообщений. Миньоны / Minions (2015) BDRip-AVC от HELLYWOOD | Лицензия

361 | 31

2.18 ГБ

В этой теме нет новых непрочитанных сообщений. Миньоны / Minions (2015) BDRip-AVC от HELLYWOOD | Лицензия

533 | 21

1.46 ГБ

В этой теме нет новых непрочитанных сообщений. Миньоны / Minions (2015) BDRip-AVC от New-Team | Лицензия

1206 | 22

2.19 ГБ




Вы не можете начинать темы
Вы не можете отвечать на сообщения
Вы не можете редактировать свои сообщения
Вы не можете удалять свои сообщения
Вы не можете добавлять вложения

Перейти:  
Для Мосгорсуда, Роскомнадзора и рекламодателей: mosgorsud-torrent[собачка]yandex.ru
 Вход
ppkBB3cker v.2 © 2008-2014 @ PPK
[ Time : 0.073s | 15 Queries | GZIP : Off ]

Торрент трекер RUTOR.IN, Не можете зайти на rutor.org? Какой новый адрес рутор? Какое зеркало рутор? Не работает rutor.org и зеркала? Тогда наш торрент специально для вас. Rutor.in неофициальное зеркало rutor. В случае если у Вас заблокирован rutor или вдруг Вы не можете на него зайти, то Вы без труда сможете скачать бесплатно и без рекламы последние новинки кино, игр, сериалов и прочего у нас, на Rutor.in. Не нужно использовать прокси, чтобы зайти на рутор, достаточно воспользоваться нашим ресурсом. Все новые фильмы, игры, сериалы, книги и музыка за 2013 и 2014 годы через торрент бесплатно. Скачивайте фильмы в хорошем качестве, игры для пк, xbox, playstation без регистрации. У нас вы найдете новые Зарубежные сериалы и Русские сериалы 2013, 2014, 2015 годов. Оставайтесь с нами, качайте любимые фильмы, игры, сериалы, книги и музыку.