img image001 image001 image001 image001 image001 image001 image001 image001 image001 image001 image001 image001 image001 image001 image001

Planets Sun Sun Sun
Статистика раздачи
Автор: Nickolas3434 | Размер: 485.76 МБ | Добавлен: 17 ноя 2015
Раздают: 167    Качают: 10
Скачать торрент
Скачать торрент
Описание торрента

СообщениеДобавлено: 17 ноя 2015 




Лава
Lava



Год выпуска: 2014
Страна: США (Walt Disney Pictures, Pixar Animation Studios)
Жанр: Мультфильм, Короткометражка, Мелодрама, Музыкальный
Продолжительность: 00:07:13
Перевод: Профессиональный (дублированный)
Режиссер: Джеймс Форд Мерфи / James Ford Murphy


озвучивали (дублировали):
Uku - Kuana Torres Kahele (Михаил Озеров)
Lele - Napua Makua (Ирина Обрезкова)



Описание: Музыкальная история Большой любви двух вулканов Уку и Леле.
Мультфильм демонстрировался, как это принято у студии Pixar, вместе с полнометражным анимационным фильмом «Головоломка» (2015).



Доп. инфо: Доп с BD 3D Eur Головоломка / Inside Out. Видеоряд русскоязычный.
Укуле́ле (от гавайского ʻukulele [ˈʔukuˈlele]) — гавайский четырёхструнный щипковый музыкальный инструмент, либо же со сдвоенными струнами, то есть — восьмиструнный. Название переводится по одной версии как «прыгающая блоха», так как движение пальцев при игре на укулеле напоминает прыжки блохи, по другой — как «подарок, который пришёл сюда». Гитара укулеле может быть разных форм, как стандартной, гитарообразной, так и формы «ананас», в форме весла, треугольной формы, квадратной (часто сделанной из коробок из-под сигар) и т. д.

Премьера (мир): 10 октября 2014




Качество: BDRip (by Ash61)
Контейнер: MKV
Формат 3D: Half OverUnder / Вертикальная анаморфная стереопара
Порядок ракурсов: левый ракурс первый


Видео: AVC / 23,976 fps / 1920х1080p / ~7.9 Mbps
Аудио:
#1 - Русский / AC3 / 48 KHz / 5.1 ch / 640 Kbps (Дубляж - BD 3D Eur)
#2 - Английский / AC3 / 48 KHz / 5.1 ch / 640 Kbps (Original - BD 3D Eur)
Субтитры (внешние SRT UTF-8):
#1 - Русские Полные
#2 - English Full
#3 - English SDH
General
Unique ID : 252054772434826040951977097386572600758 (0xBD9FFBBF2BE1663F9B6B1172D51B55B6)
Complete name : E:Lava(2014)3D-halfOU(Ash61)[short]Lava(2014)3D-halfOU(Ash61)[short].mkv
Format : Matroska
Format version : Version 2
File size : 486 MiB
Duration : 7mn 12s
Overall bit rate : 9 411 Kbps
Movie name : Лава / Lava (2014) [from BD 3D Eur "Inside Out"] в 3Д
Encoded date : UTC 2015-11-16 17:18:07
Writing application : mkvmerge v5.8.0 ('No Sleep / Pillow') built on Sep 2 2012 15:37:04
Writing library : libebml v1.2.3 + libmatroska v1.3.0
Video
ID : 1
Format : AVC
Format/Info : Advanced Video Codec
Format profile : High@L4.1
Format settings, CABAC : Yes
Format settings, ReFrames : 4 frames
Codec ID : V_MPEG4/ISO/AVC
Duration : 7mn 12s
Bit rate : 7 944 Kbps
Width : 1 920 pixels
Height : 1 080 pixels
Display aspect ratio : 16:9
Frame rate mode : Constant
Frame rate : 23.976 fps
Color space : YUV
Chroma subsampling : 4:2:0
Bit depth : 8 bits
Scan type : Progressive
Bits/(Pixel*Frame) : 0.160
Stream size : 410 MiB (84%)
Title : BDRip by Ash61
Writing library : x264 core 146 r2538 121396c
Encoding settings : cabac=1 / ref=4 / deblock=1:-3:-3 / analyse=0x3:0x113 / me=umh / subme=10 / psy=1 / psy_rd=1.00:0.00 / mixed_ref=1 / me_range=32 / chroma_me=1 / trellis=2 / 8x8dct=1 / cqm=0 / deadzone=21,11 / fast_pskip=1 / chroma_qp_offset=-2 / threads=12 / lookahead_threads=3 / sliced_threads=0 / nr=0 / decimate=1 / interlaced=0 / bluray_compat=0 / constrained_intra=0 / bframes=13 / b_pyramid=2 / b_adapt=2 / b_bias=0 / direct=3 / weightb=1 / open_gop=0 / weightp=2 / keyint=250 / keyint_min=23 / scenecut=40 / intra_refresh=0 / rc_lookahead=60 / rc=crf / mbtree=1 / crf=14.5 / qcomp=0.70 / qpmin=0 / qpmax=69 / qpstep=4 / vbv_maxrate=40000 / vbv_bufsize=30000 / crf_max=0.0 / nal_hrd=none / filler=0 / frame-packing=4 / ip_ratio=1.40 / aq=1:0.70
Language : English
Default : Yes
Forced : No
Audio #1
ID : 2
Format : AC-3
Format/Info : Audio Coding 3
Mode extension : CM (complete main)
Format settings, Endianness : Big
Codec ID : A_AC3
Duration : 7mn 12s
Bit rate mode : Constant
Bit rate : 640 Kbps
Channel(s) : 6 channels
Channel positions : Front: L C R, Side: L R, LFE
Sampling rate : 48.0 KHz
Bit depth : 16 bits
Compression mode : Lossy
Stream size : 33.0 MiB (7%)
Title : Дубляж - BD 3D Eur
Language : Russian
Default : Yes
Forced : No
Audio #2
ID : 3
Format : AC-3
Format/Info : Audio Coding 3
Mode extension : CM (complete main)
Format settings, Endianness : Big
Codec ID : A_AC3
Duration : 7mn 12s
Bit rate mode : Constant
Bit rate : 640 Kbps
Channel(s) : 6 channels
Channel positions : Front: L C R, Side: L R, LFE
Sampling rate : 48.0 KHz
Bit depth : 16 bits
Compression mode : Lossy
Stream size : 33.0 MiB (7%)
Title : Original - BD 3D Eur
Language : English
Default : No
Forced : No
















   Похожие торренты   Торрент   Размер 
В этой теме нет новых непрочитанных сообщений. Лава-Лава! / Lava-Lava! [01х01-14 из 14] (1995) DVDRip

25 | 12

828.7 МБ

В этой теме нет новых непрочитанных сообщений. Лава / Lava (2014) BDRip | Dub

403 | 20

159.36 МБ

В этой теме нет новых непрочитанных сообщений. Лава / Lava (Джеймс Форд Мерфи) [2014, мультфильм, короткометражка, мелодрама, BDRip-AVC] DUB

325 | 5

94.01 МБ

В этой теме нет новых непрочитанных сообщений. Ной / Noah (2014) BDRip 1080p от Ash61 | 3D-Video | halfOU

1157 | 284

11.44 ГБ

В этой теме нет новых непрочитанных сообщений. Рио 2 / Rio 2 (2014) BDRip 1080p от Ash61 | 3D-Video | halfOU | Лицензия

1224 | 222

7.63 ГБ

В этой теме нет новых непрочитанных сообщений. Рио 2 / Rio 2 (2014) BDRip 1080p от Ash61 | 3D-Video | halfOU | Line

1069 | 272

7.14 ГБ

В этой теме нет новых непрочитанных сообщений. Малефисента / Maleficent (2014) BDRip 1080p от Ash61 | 3D-Video | halfOU

1364 | 142

5.8 ГБ




Вы не можете начинать темы
Вы не можете отвечать на сообщения
Вы не можете редактировать свои сообщения
Вы не можете удалять свои сообщения
Вы не можете добавлять вложения

Перейти:  
Для Мосгорсуда, Роскомнадзора и рекламодателей: mosgorsud-torrent[собачка]yandex.ru
 Вход
ppkBB3cker v.2 © 2008-2014 @ PPK
[ Time : 0.057s | 16 Queries | GZIP : Off ]

Торрент трекер RUTOR.IN, Не можете зайти на rutor.org? Какой новый адрес рутор? Какое зеркало рутор? Не работает rutor.org и зеркала? Тогда наш торрент специально для вас. Rutor.in неофициальное зеркало rutor. В случае если у Вас заблокирован rutor или вдруг Вы не можете на него зайти, то Вы без труда сможете скачать бесплатно и без рекламы последние новинки кино, игр, сериалов и прочего у нас, на Rutor.in. Не нужно использовать прокси, чтобы зайти на рутор, достаточно воспользоваться нашим ресурсом. Все новые фильмы, игры, сериалы, книги и музыка за 2013 и 2014 годы через торрент бесплатно. Скачивайте фильмы в хорошем качестве, игры для пк, xbox, playstation без регистрации. У нас вы найдете новые Зарубежные сериалы и Русские сериалы 2013, 2014, 2015 годов. Оставайтесь с нами, качайте любимые фильмы, игры, сериалы, книги и музыку.
cron