img image001 image001 image001 image001 image001 image001 image001 image001 image001 image001 image001 image001 image001 image001 image001

Planets Sun Sun Sun
Статистика раздачи
Автор: Nickolas3434 | Размер: 4.35 ГБ | Добавлен: 20 ноя 2015
Раздают: 75    Качают: 9
Скачать торрент
Скачать торрент
Описание торрента

СообщениеДобавлено: 20 ноя 2015 


Год выпуска: 2014
Производство: Ирландия, Дания, Бельгия, Люксембург, Франция / The Cartoon Saloon, Mélusine Productions, The Big Farm, Superprod, Nørlum
Жанр: Мультфильм, фэнтези, семейный
Режиссер: Томм Мур
Продюсеры: Клаус Токсвиг Кьяэр, Томм Мур, Пол Янг
Роли озвучивали: Дэвид Роул, Брендан Глисон, Лиза Хэннигэн, Финола Флэнаган, Люси О’Коннелл, Джон Кенни, Пэт Шорт, Колм О’Снодай, Лиам Хурикан, Кевин Щвершч
Описание фильма:
Невероятная история Бена и его сестренки Сирши. Вместе они пускаются в фантастическое путешествие сквозь исчезающий мир древних легенд и магии, пытаясь вернуться домой.
Перевод: Дублированный (iTunes)
Субтитры: Английские, русские

Дата мировой премьеры: 6 сентября 2014
Дата российской премьеры: 27 августа 2015, «Премиум Фильм»

Продолжительность: 01:33:48
Качество видео: DVD5
Видео: MPEG-2, 720x480@853x480 (NTSC 16:9), ~5800 Кбит/сек
Аудио 1: AC3 5.1, 448 Кбит/сек [Английский - оригинал]
Аудио 2: AC3 5.1, 384 Кбит/сек [Русский - дублированный]
Title: Song of the Sea (2014) DVD5 NTSC
Size: 4.35 Gb ( 4 560 664,00 KBytes ) - DVD-5
Enabled regions: 1, 2, 3, 4, 5, 6, 7, 8
VTS_01 :
Play Length: 01:33:48+00:00:14
Video: NTSC 16:9 (720x480) VBR, Auto Letterboxed
Audio:
English (Dolby AC3, 6 ch)
Russian (Dolby AC3, 6 ch)
Subtitles:
English
Russian
* Menus Information *
VIDEO_TS Menu
Video:
NTSC 16:9 (720x480) VBR
Auto Pan&Scan
English Language Unit :
Title Menu
VTS_01 Menu
Video:
NTSC 16:9 (720x480) VBR
Auto Letterboxed
Audio:
Not specified (Dolby AC3, 2 ch)
English Language Unit :
Root Menu
Subpicture Menu
Audio Menu
Angle menu
Chapter (PTT) Menu
Общее
Полное имя : G:ВидеоSong of the Sea (2014) DVD5 NTSCVIDEO_TSVTS_01_3.VOB
Формат : MPEG-PS
Размер файла : 1024 Мбайт
Продолжительность : 21 м.
Режим общего битрейта : Переменный
Общий поток : 6763 Кбит/сек
Видео
Идентификатор : 224 (0xE0)
Формат : MPEG Video
Версия формата : Version 2
Профиль формата : Main@Main
Параметр BVOP формата : Да
Параметр матрицы формата : Выборочная
Параметр GOP формата : Variable
Продолжительность : 21 м.
Вид битрейта : Переменный
Битрейт : 5797 Кбит/сек
Максимальный битрейт : 9800 Кбит/сек
Ширина : 720 пикселей
Высота : 480 пикселей
Соотношение сторон : 16:9
Частота кадров : 23,976 кадра/сек
Стандарт вещания : Component
Цветовое пространство : YUV
Субдискретизация насыщенности : 4:2:0
Битовая глубина : 8 бит
Тип развёртки : Прогрессивная
Порядок развёртки : 2:3 Pulldown
Метод сжатия : С потерями
Бит/(Пиксели*Кадры) : 0.700
Временной код первого кадра : 00:43:38;14
Оригинал временного кода : Group of pictures header
GOP, открыто/закрыто : Открыто
Размер потока : 877 Мбайт (86%)
Основные цвета : BT.601 NTSC
Характеристики трансфера : BT.601
Коэффициенты матрицы : BT.601
Аудио #1
Идентификатор : 189 (0xBD)-128 (0x80)
Формат : AC-3
Формат/Информация : Audio Coding 3
Расширение режима : CM (complete main)
Параметр Endianness формата : Big
Режим смешивания : DVD-Video
Продолжительность : 21 м.
Вид битрейта : Постоянный
Битрейт : 448 Кбит/сек
Каналы : 6 каналов
Расположение каналов : Front: L C R, Side: L R, LFE
Частота : 48,0 КГц
Битовая глубина : 16 бит
Метод сжатия : С потерями
Задержка видео : -619 мс.
Размер потока : 67,8 Мбайт (7%)
Аудио #2
Идентификатор : 189 (0xBD)-129 (0x81)
Формат : AC-3
Формат/Информация : Audio Coding 3
Расширение режима : CM (complete main)
Параметр Endianness формата : Big
Режим смешивания : DVD-Video
Продолжительность : 21 м.
Вид битрейта : Постоянный
Битрейт : 384 Кбит/сек
Каналы : 6 каналов
Расположение каналов : Front: L C R, Side: L R, LFE
Частота : 48,0 КГц
Битовая глубина : 16 бит
Метод сжатия : С потерями
Задержка видео : -587 мс.
Размер потока : 58,1 Мбайт (6%)
Текст #1
Идентификатор : 189 (0xBD)-32 (0x20)
Формат : RLE
Формат/Информация : Run-length encoding
Режим смешивания : DVD-Video
Текст #2
Идентификатор : 189 (0xBD)-33 (0x21)
Формат : RLE
Формат/Информация : Run-length encoding
Режим смешивания : DVD-Video
Меню
Исходник: Песнь моря / Song of the Sea (2014) DVD9 | D, L, А | Custom
Удалены: доп. материалы, звуковые дорожки: CatBug TV, Юрий Сербин и комментарии.
Команды диска переписаны заново, оставлен один VTS.
Видео сжато на 5,3%
Меню: статичное, недействующие кнопки затерты и закрыты.
Обработка и сжатие: DVD ReMake Pro + DVD Rebuilder + CCE SP2 [7 проходов] + Работа с меню (Adobe PhotoShop и MuxMan).

Скриншоты:



   Похожие торренты   Торрент   Размер 
В этой теме нет новых непрочитанных сообщений. Песнь моря / Song of the Sea (2014) WEBRip | P

1233 | 37

1.43 ГБ

В этой теме нет новых непрочитанных сообщений. Песнь моря / Song of the Sea (2014) BDRip 720 | P

301 | 13

3.83 ГБ

В этой теме нет новых непрочитанных сообщений. Песнь моря / Song of the Sea (2014) BDRip | A

29 | 4

2.05 ГБ

В этой теме нет новых непрочитанных сообщений. Песнь моря / Song of the Sea (2014) HDRip | Лицензия

1242 | 70

1.45 ГБ

В этой теме нет новых непрочитанных сообщений. Песнь моря / Song of the Sea (2014) HDRip от AleksSin | P

533 | 16

2.05 ГБ

В этой теме нет новых непрочитанных сообщений. Песнь моря / Song of the Sea (2014) BDRip 720p | Sub

275 | 15

2.65 ГБ

В этой теме нет новых непрочитанных сообщений. Песнь моря / Song of the Sea (2014) BDRip от HQCLUB | А, L

167 | 4

2.18 ГБ




Вы не можете начинать темы
Вы не можете отвечать на сообщения
Вы не можете редактировать свои сообщения
Вы не можете удалять свои сообщения
Вы не можете добавлять вложения

Перейти:  
Для Мосгорсуда, Роскомнадзора и рекламодателей: mosgorsud-torrent[собачка]yandex.ru
 Вход
ppkBB3cker v.2 © 2008-2014 @ PPK
[ Time : 0.046s | 14 Queries | GZIP : On ]

Торрент трекер RUTOR.IN, Не можете зайти на rutor.org? Какой новый адрес рутор? Какое зеркало рутор? Не работает rutor.org и зеркала? Тогда наш торрент специально для вас. Rutor.in неофициальное зеркало rutor. В случае если у Вас заблокирован rutor или вдруг Вы не можете на него зайти, то Вы без труда сможете скачать бесплатно и без рекламы последние новинки кино, игр, сериалов и прочего у нас, на Rutor.in. Не нужно использовать прокси, чтобы зайти на рутор, достаточно воспользоваться нашим ресурсом. Все новые фильмы, игры, сериалы, книги и музыка за 2013 и 2014 годы через торрент бесплатно. Скачивайте фильмы в хорошем качестве, игры для пк, xbox, playstation без регистрации. У нас вы найдете новые Зарубежные сериалы и Русские сериалы 2013, 2014, 2015 годов. Оставайтесь с нами, качайте любимые фильмы, игры, сериалы, книги и музыку.