img image001 image001 image001 image001 image001 image001 image001 image001 image001 image001 image001 image001 image001 image001 image001

Planets Sun Sun Sun
Статистика раздачи
Автор: Nickolas3434 | Размер: 1.88 ГБ | Добавлен: 22 ноя 2015
Раздают: 71    Качают: 5
Скачать торрент
Скачать торрент
Описание торрента

СообщениеДобавлено: 22 ноя 2015 


Информация о фильме
Название: Мульт утро
Год выхода: 2015
Жанр: Мультсериал, компьютерная анимация, сказка, детский, семейный
Режиссер: Россия HD
В ролях: Герои мультфильмов
О фильме:
Встречайте каждую субботу с любимыми героями! "Маша и Медведь", "Фиксики", "Лунтик и его друзья", "Барбоскины", "Аркадий Паровозов спешит на помощь" и другие мультфильмы – на телеканале "Россия HD".
Страна: Россия
Продолжительность: 00:54:50
Перевод: Не требуется
Файл
Кодек: XviD
Качество: HDTVRip
Видео: 624x352 (1.77:1), 25 fps, XviD build 73 ~1090 kbps avg, 0.20 bit/pixel
Звук: 48 kHz, MPEG Layer 3, 2 ch, ~128.00 kbps avg
Субтитры: Отсутствует
Семпл
General
Complete name : D:Изготовление риповMULTutro.(31.10.2015).2015.HDTVip by shkiper.avi
Format : AVI
Format/Info : Audio Video Interleave
File size : 482 MiB
Duration : 54mn 50s
Overall bit rate : 1 229 Kbps
Writing application : VirtualDubMod 1.5.10.3 | www.virtualdub-fr.org || (build 2550/release)
Writing library : VirtualDubMod build 2550/release
Video
ID : 0
Format : MPEG-4 Visual
Format profile : Advanced Simple@L5
Format settings, BVOP : 1
Format settings, QPel : No
Format settings, GMC : No warppoints
Format settings, Matrix : Custom
Codec ID : XVID
Codec ID/Hint : XviD
Duration : 54mn 50s
Bit rate : 1 091 Kbps
Width : 624 pixels
Height : 352 pixels
Display aspect ratio : 16:9
Frame rate : 25.000 fps
Color space : YUV
Chroma subsampling : 4:2:0
Bit depth : 8 bits
Scan type : Progressive
Compression mode : Lossy
Bits/(Pixel*Frame) : 0.199
Stream size : 428 MiB (89%)
Writing library : XviD 73
Audio
ID : 1
Format : MPEG Audio
Format version : Version 1
Format profile : Layer 3
Codec ID : 55
Codec ID/Hint : MP3
Duration : 54mn 50s
Bit rate mode : Constant
Bit rate : 128 Kbps
Channel(s) : 2 channels
Sampling rate : 48.0 KHz
Compression mode : Lossy
Stream size : 50.2 MiB (10%)
Alignment : Aligned on interleaves
Interleave, duration : 40 ms (1.00 video frame)
Interleave, preload duration : 504 ms
Writing library : LAME3.99r
Encoding settings : -m s -V 4 -q 2 -lowpass 17 -b 128

Продолжительность серии разная. Разница продолжительности (+-) 5-10 минут, из-за этого отличие в kbps размер кадра один и тот же
Релиз от:



   Похожие торренты   Торрент   Размер 
В этой теме нет новых непрочитанных сообщений. Мульт утро [01х01-02] (2015) HDTVRip от Шкипер

80 | 13

963.87 МБ

В этой теме нет новых непрочитанных сообщений. Мульт утро [01х01-03] (2015) HDTVRip от Шкипер

86 | 19

1.41 ГБ

В этой теме нет новых непрочитанных сообщений. Мульт утро [01х01-04] (2015) HDTVRip от Шкипер

87 | 18

3.29 ГБ

В этой теме нет новых непрочитанных сообщений. Мульт утро [01х01-04] (2015) HDTVRip от Шкипер

81 | 4

2.35 ГБ

В этой теме нет новых непрочитанных сообщений. Мульт утро [01х01] (2015) HDTVRip от Шкипер

102 | 22

481.92 МБ

В этой теме нет новых непрочитанных сообщений. Мульт утро [01х01-09] (2015) HDTVRip от Шкипер

493 | 63

4.23 ГБ

В этой теме нет новых непрочитанных сообщений. Мульт утро [02х02] (2016) HDTVRip от Шкипер

50 | 10

561.69 МБ




Вы не можете начинать темы
Вы не можете отвечать на сообщения
Вы не можете редактировать свои сообщения
Вы не можете удалять свои сообщения
Вы не можете добавлять вложения

Перейти:  
Для Мосгорсуда, Роскомнадзора и рекламодателей: mosgorsud-torrent[собачка]yandex.ru
 Вход
ppkBB3cker v.2 © 2008-2014 @ PPK
[ Time : 0.035s | 15 Queries | GZIP : Off ]

cron