img image001 image001 image001 image001 image001 image001 image001 image001 image001 image001 image001 image001 image001 image001 image001 image001

Planets Sun Sun Sun
Статистика раздачи
Автор: Nickolas3434 | Размер: 9.12 ГБ | Добавлен: 24 ноя 2015
Раздают: 52    Качают: 22
Скачать торрент
Скачать торрент
Описание торрента

СообщениеДобавлено: 24 ноя 2015 


Информация о фильме
Название: Американский папаша
Оригинальное название: American Dad!
Год выхода: 2013
Жанр: мультфильм, комедия
Режиссер: Рон Хьюгарт, Брент Вудс, Энтони Льои
В ролях: Сет МакФарлейн, Уэнди Шаал, Ди Брэдли Бейкер, Скотт Граймз, Рэйчел МакФарлейн, Майк Баркер, Кертис Армстронг, Патрик Стюарт, Эдди Кэй Томас, Даизуке Сузуки
Описание: Сюжет мультсериала разворачивается вокруг семьи Смитов. Папа Стэн — агент ЦРУ и республиканец до мозга костей, силен телом, но глуп разумом. Имеет мужественнейший подбородок и всегда выглаженный костюм. Франсин — жена Стэна и мать детей. Типичная домохозяйка. В меру мудрая, в меру глупая. К тому же, не знает своих настоящих родителей. Сын — Стив. У него есть определенные проблемы в общении с противоположным полом (девушки с ним общаются порой, только под дулом табельного оружия отца). Дочь Хэйли — отчаянная либералка, имеет «хиппарские» черты, но хиппи не является, хоть и защищает природу, и принимает легкие наркотики.
Говорящая золотая рыбка Клаусс — на самом деле, мозг у Рыбки — человеческий. Просто ЦРУ взяло мозг у Немецкого спортсмена-лыжника, чтобы Германия не выиграла олимпиаду. Часто перемещается по дому в маленькой баночке, перебирая плавниками по полу. Инопланетянин Роджер — просто инопланетянин. Когда-то спас Стэна в «Зоне 51» и теперь живет со Смитами. Толстый и хитрый — именно эти черты наиболее полно раскрыты в Роджере. Страстный любитель париков и выпивки.

Страна: США
Продолжительность: 20х~22 минуты
Перевод:
1. Профессиональный (многоголосый закадровый) - 2x2
2. Профессиональный (многоголосый закадровый) - Filiza Studio (1-13, 18-20 серии)
3. Оригинал (английский)
Файл
Формат: MKV
Качество: WEB-DL 720p
Видео: 1280x718 (16:9), H.264, ~2000 kbps, 23.976 fps
Аудио №1: AC3, 192 Кбит/сек, 2 канала, 48,0 КГц - 2x2
Аудио №2: AC3, 192 Кбит/сек, 2 канала, 48,0 КГц - Filiza Studio
Аудио №3: AC3, 384 Кбит/сек, 6 каналов, 48,0 КГц - Оригинал (английский)

General
UniqueID : 179247573170280671928433387989639548317 (0x86D9D3AD46C46A3FAF0559774C42CD9D)
Complete name : F:Мои документыВадимМоё видео (Вадим)HDAnimated Series (HD)American Dad (HD)American Dad Season 9 (WEB-DL 720p)\01. Steve and Snot's Testubular Adventure.mkv
Format : Matroska
File size : 437 MiB
Duration : 21mn 37s
Overall bit rate : 2 825 Kbps
Encoded date : UTC 2014-08-26 20:28:03
Writing application : mkvmerge v5.8.0 ('No Sleep / Pillow') built on Sep 2 2012 15:37:04
Writing library : libebml v1.2.3 + libmatroska v1.3.0
Video
ID : 1
Format : AVC
Format/Info : Advanced Video Codec
Format profile : High@L3.1
Format settings, CABAC : No
Format settings, ReFrames : 2 frames
Format settings, GOP : M=2, N=27
Codec ID : V_MPEG4/ISO/AVC
Duration : 21mn 37s
Bit rate mode : Variable
Bit rate : 2 001 Kbps
Width : 1 280 pixels
Height : 718 pixels
Display aspect ratio : 16:9
Frame rate : 23.976 fps
Color space : YUV
Chroma subsampling : 4:2:0
Bit depth : 8 bits
Scan type : Progressive
Bits/(Pixel*Frame) : 0.091
Stream size : 309 MiB (71%)
Language : English
Default : Yes
Forced : No
Color primaries : BT.709-5, BT.1361, IEC 61966-2-4, SMPTE RP177
Transfer characteristics : BT.709-5, BT.1361
Matrix coefficients : BT.709-5, BT.1361, IEC 61966-2-4 709, SMPTE RP177
Audio #1
ID : 2
Format : AC-3
Format/Info : Audio Coding 3
Mode extension : CM (complete main)
Format settings, Endianness : Big
Codec ID : A_AC3
Duration : 21mn 37s
Bit rate mode : Constant
Bit rate : 192 Kbps
Channel(s) : 2 channels
Channel positions : Front: L R
Sampling rate : 48.0 KHz
Bit depth : 16 bits
Compression mode : Lossy
Stream size : 29.7 MiB (7%)
Title : 2x2
Language : Russian
Default : Yes
Forced : No
Audio #2
ID : 3
Format : AC-3
Format/Info : Audio Coding 3
Mode extension : CM (complete main)
Format settings, Endianness : Big
Codec ID : A_AC3
Duration : 21mn 37s
Bit rate mode : Constant
Bit rate : 192 Kbps
Channel(s) : 2 channels
Channel positions : Front: L R
Sampling rate : 48.0 KHz
Bit depth : 16 bits
Compression mode : Lossy
Stream size : 29.7 MiB (7%)
Title : Filiza Studio
Language : Russian
Default : No
Forced : No
Audio #3
ID : 4
Format : AC-3
Format/Info : Audio Coding 3
Mode extension : CM (complete main)
Format settings, Endianness : Big
Codec ID : A_AC3
Duration : 21mn 37s
Bit rate mode : Constant
Bit rate : 384 Kbps
Channel(s) : 6 channels
Channel positions : Front: L C R, Side: L R, LFE
Sampling rate : 48.0 KHz
Bit depth : 16 bits
Compression mode : Lossy
Video delay : 3ms
Stream size : 59.4 MiB (14%)
Title : Original
Language : English
Default : No
Forced : No



   Похожие торренты   Торрент   Размер 
В этой теме нет новых непрочитанных сообщений. Американский папаша / American Dad! [12х01-15 из 22] (2015) WEB-DL 720p | Jaskier

4 | 11

10.06 ГБ

В этой теме нет новых непрочитанных сообщений. Американский папаша / American Dad! [12х01 из 15] (2015) WEB-DL 720p | Filiza

11 | 0

288.06 МБ

В этой теме нет новых непрочитанных сообщений. Американский папаша / American Dad! [13х01-07 из 15] (2015) WEB-DL 720p | Jaskier

1 | 9

4.61 ГБ

В этой теме нет новых непрочитанных сообщений. Американский папаша / American Dad! [12х01-02 из 15] (2016) WEB-DL 720p | Filiza

55 | 6

596.87 МБ

В этой теме нет новых непрочитанных сообщений. Американский папаша / American Dad! [12х01-12 из 15] (2015) WEB-DL 720p | Jaskier

6 | 7

8.04 ГБ

В этой теме нет новых непрочитанных сообщений. Американский папаша / American Dad! [12х01-04 из 15] (2016) WEB-DL 720p | Filiza

125 | 56

1.15 ГБ

В этой теме нет новых непрочитанных сообщений. Американский папаша / American Dad! [12х01-05 из 15] (2016) WEB-DL 720p | Filiza

162 | 125

1.48 ГБ




Вы не можете начинать темы
Вы не можете отвечать на сообщения
Вы не можете редактировать свои сообщения
Вы не можете удалять свои сообщения
Вы не можете добавлять вложения

Перейти:  
 Вход
ppkBB3cker v.2 © 2008-2014 @ PPK
[ Time : 0.020s | 15 Queries | GZIP : Off ]

cron