img image001 image001 image001 image001 image001 image001 image001 image001 image001 image001 image001 image001 image001 image001 image001

Planets Sun Sun Sun
Статистика раздачи
Автор: Nickolas3434 | Размер: 2.8 ГБ | Добавлен: 25 ноя 2015
Раздают: 63    Качают: 8
Скачать торрент
Скачать торрент
Описание торрента

СообщениеДобавлено: 25 ноя 2015 


Информация о фильме
Название: Американский папаша
Оригинальное название: American Dad!
Год выхода: 2014
Жанр: мультфильм, комедия
Режиссер: Рон Хьюгарт, Брент Вудс, Энтони Льои
В ролях: Сет МакФарлейн, Уэнди Шаал, Ди Брэдли Бейкер, Скотт Граймз, Рэйчел МакФарлейн, Майк Баркер, Кертис Армстронг, Патрик Стюарт, Эдди Кэй Томас, Даизуке Сузуки
Описание: Сюжет мультсериала разворачивается вокруг семьи Смитов. Папа Стэн — агент ЦРУ и республиканец до мозга костей, силен телом, но глуп разумом. Имеет мужественнейший подбородок и всегда выглаженный костюм. Франсин — жена Стэна и мать детей. Типичная домохозяйка. В меру мудрая, в меру глупая. К тому же, не знает своих настоящих родителей. Сын — Стив. У него есть определенные проблемы в общении с противоположным полом (девушки с ним общаются порой, только под дулом табельного оружия отца). Дочь Хэйли — отчаянная либералка, имеет «хиппарские» черты, но хиппи не является, хоть и защищает природу, и принимает легкие наркотики.
Говорящая золотая рыбка Клаусс — на самом деле, мозг у Рыбки — человеческий. Просто ЦРУ взяло мозг у Немецкого спортсмена-лыжника, чтобы Германия не выиграла олимпиаду. Часто перемещается по дому в маленькой баночке, перебирая плавниками по полу. Инопланетянин Роджер — просто инопланетянин. Когда-то спас Стэна в «Зоне 51» и теперь живет со Смитами. Толстый и хитрый — именно эти черты наиболее полно раскрыты в Роджере. Страстный любитель париков и выпивки.

Страна: США
Продолжительность: 3х~22 минуты
Перевод:
1. Профессиональный (многоголосый закадровый) - 2x2
2. Профессиональный (многоголосый закадровый) - Filiza Studio
3. Оригинал (английский)
Файл
Формат: MKV
Качество: WEB-DL 1080p
Видео: 1920x1080, (16:9), H.264, ~5000 kbps, 23.976 fps
Аудио №1: AC3, 192 Кбит/сек, 2 канала, 48,0 КГц - 2x2
Аудио №2: AC3, 384 Кбит/сек, 6 каналов, 48,0 КГц - Filiza Studio
Аудио №3: AC3, 384 Кбит/сек, 6 каналов, 48,0 КГц - Оригинал (английский)
Субтитры: Английские

General
Unique ID : 236344596277305169396360187358918310175 (0xB1CE50429D535074A27DC0965C39791F)
Complete name : E:VideoHDAnimated Series (HD)American Dad Season 10 (WEB-DL 1080p)\01. Roger Passes the Bar.mkv
Format : Matroska
Format version : Version 4 / Version 2
File size : 943 MiB
Duration : 21mn 28s
Overall bit rate : 6 143 Kbps
Movie name : American Dad Season 10 (WEB-DL | 1080p | v.serij2013)
Encoded date : UTC 2015-10-21 10:22:24
Writing application : mkvmerge v8.2.0 ('World of Adventure') 32bit
Writing library : libebml v1.3.1 + libmatroska v1.4.2
DURATION : 00:21:28.256000000
NUMBER_OF_FRAMES : 40258
NUMBER_OF_BYTES : 30918144
_STATISTICS_WRITING_APP : mkvmerge v8.2.0 ('World of Adventure') 32bit
_STATISTICS_WRITING_DATE_UTC : 2015-10-21 10:22:24
_STATISTICS_TAGS : BPS DURATION NUMBER_OF_FRAMES NUMBER_OF_BYTES
Video
ID : 1
Format : AVC
Format/Info : Advanced Video Codec
Format profile : High@L4.0
Format settings, CABAC : Yes
Format settings, ReFrames : 4 frames
Codec ID : V_MPEG4/ISO/AVC
Duration : 21mn 28s
Bit rate : 5 061 Kbps
Width : 1 920 pixels
Height : 1 080 pixels
Display aspect ratio : 16:9
Frame rate mode : Constant
Frame rate : 23.976 fps
Color space : YUV
Chroma subsampling : 4:2:0
Bit depth : 8 bits
Scan type : Progressive
Bits/(Pixel*Frame) : 0.102
Stream size : 777 MiB (82%)
Language : English
Default : Yes
Forced : No
Color primaries : BT.709
Transfer characteristics : BT.709
Matrix coefficients : BT.709
Audio #1
ID : 2
Format : AC-3
Format/Info : Audio Coding 3
Mode extension : CM (complete main)
Format settings, Endianness : Big
Codec ID : A_AC3
Duration : 21mn 28s
Bit rate mode : Constant
Bit rate : 192 Kbps
Channel(s) : 2 channels
Channel positions : Front: L R
Sampling rate : 48.0 KHz
Bit depth : 16 bits
Compression mode : Lossy
Stream size : 29.5 MiB (3%)
Title : MVO (2x2)
Language : Russian
Default : Yes
Forced : No
Audio #2
ID : 3
Format : AC-3
Format/Info : Audio Coding 3
Mode extension : CM (complete main)
Format settings, Endianness : Big
Codec ID : A_AC3
Duration : 21mn 28s
Bit rate mode : Constant
Bit rate : 384 Kbps
Channel(s) : 6 channels
Channel positions : Front: L C R, Side: L R, LFE
Sampling rate : 48.0 KHz
Bit depth : 16 bits
Compression mode : Lossy
Stream size : 59.0 MiB (6%)
Title : MVO (Filiza Studio)
Language : Russian
Default : No
Forced : No
Audio #3
ID : 4
Format : AC-3
Format/Info : Audio Coding 3
Mode extension : CM (complete main)
Format settings, Endianness : Big
Codec ID : A_AC3
Duration : 21mn 28s
Bit rate mode : Constant
Bit rate : 384 Kbps
Channel(s) : 6 channels
Channel positions : Front: L C R, Side: L R, LFE
Sampling rate : 48.0 KHz
Bit depth : 16 bits
Compression mode : Lossy
Stream size : 59.0 MiB (6%)
Title : Original
Language : English
Default : No
Forced : No
Text
ID : 5
Format : UTF-8
Codec ID : S_TEXT/UTF8
Codec ID/Info : UTF-8 Plain Text
Title : Original
Language : English
Default : No
Forced : No

Сериал перешел с канала FOX на канал TBS. TBS решил не продолжать 10 сезон, а начать показ с первой серии 11-го сезона... Таким образом в 10 сезоне будет всего 3 эпизода.



   Похожие торренты   Торрент   Размер 
В этой теме нет новых непрочитанных сообщений. Американский папаша / American Dad! [S011] (2014) WEB-DL 1080p | P

219 | 28

13.15 ГБ

В этой теме нет новых непрочитанных сообщений. Американский папаша! / American DaD! [08х01-04] (2012) WEB-DL 1080p By Filiza Studio

18 | 5

2.83 ГБ

В этой теме нет новых непрочитанных сообщений. Американский папаша! / American DaD! [08х05-06] (2012) WEB-DL 1080p By Filiza Studio

13 | 3

1.69 ГБ

В этой теме нет новых непрочитанных сообщений. Американский папаша / American Dad! [S09] (2013) WEB-DL 720p | P

60 | 15

9.12 ГБ

В этой теме нет новых непрочитанных сообщений. Американский Папаша / American Dad! [04x01] (2008) WEB-DLRip

0 | 2

271.85 МБ

В этой теме нет новых непрочитанных сообщений. Американский папаша / American Dad! [13х01-07 из 15] (2016) WEB-DLRip | Jaskier

44 | 27

1.73 ГБ

В этой теме нет новых непрочитанных сообщений. Американский папаша / American Dad! [12х01-05 из 15] (2016) WEB-DL 720p | Filiza

162 | 125

1.48 ГБ




Вы не можете начинать темы
Вы не можете отвечать на сообщения
Вы не можете редактировать свои сообщения
Вы не можете удалять свои сообщения
Вы не можете добавлять вложения

Перейти:  
Для Мосгорсуда, Роскомнадзора и рекламодателей: mosgorsud-torrent[собачка]yandex.ru
 Вход
ppkBB3cker v.2 © 2008-2014 @ PPK
[ Time : 0.040s | 16 Queries | GZIP : Off ]
CGP output time : 0.016s | 5 Queries | GZIP : Off

Торрент трекер RUTOR.IN, Не можете зайти на rutor.org? Какой новый адрес рутор? Какое зеркало рутор? Не работает rutor.org и зеркала? Тогда наш торрент специально для вас. Rutor.in неофициальное зеркало rutor. В случае если у Вас заблокирован rutor или вдруг Вы не можете на него зайти, то Вы без труда сможете скачать бесплатно и без рекламы последние новинки кино, игр, сериалов и прочего у нас, на Rutor.in. Не нужно использовать прокси, чтобы зайти на рутор, достаточно воспользоваться нашим ресурсом. Все новые фильмы, игры, сериалы, книги и музыка за 2013 и 2014 годы через торрент бесплатно. Скачивайте фильмы в хорошем качестве, игры для пк, xbox, playstation без регистрации. У нас вы найдете новые Зарубежные сериалы и Русские сериалы 2013, 2014, 2015 годов. Оставайтесь с нами, качайте любимые фильмы, игры, сериалы, книги и музыку.