img image001 image001 image001 image001 image001 image001 image001 image001 image001 image001 image001 image001 image001 image001 image001 image001

Planets Sun Sun Sun
Статистика раздачи
Автор: Nickolas3434 | Размер: 13.15 ГБ | Добавлен: 24 ноя 2015
Раздают: 216    Качают: 33
Скачать торрент
Скачать торрент
Описание торрента

СообщениеДобавлено: 24 ноя 2015 


Информация о фильме
Название: Американский папаша
Оригинальное название: American Dad!
Год выхода: 2014
Жанр: мультфильм, комедия
Режиссер: Рон Хьюгарт, Брент Вудс, Энтони Льои
В ролях: Сет МакФарлейн, Уэнди Шаал, Ди Брэдли Бейкер, Скотт Граймз, Рэйчел МакФарлейн, Майк Баркер, Кертис Армстронг, Патрик Стюарт, Эдди Кэй Томас, Даизуке Сузуки
Описание: Сюжет мультсериала разворачивается вокруг семьи Смитов. Папа Стэн — агент ЦРУ и республиканец до мозга костей, силен телом, но глуп разумом. Имеет мужественнейший подбородок и всегда выглаженный костюм. Франсин — жена Стэна и мать детей. Типичная домохозяйка. В меру мудрая, в меру глупая. К тому же, не знает своих настоящих родителей. Сын — Стив. У него есть определенные проблемы в общении с противоположным полом (девушки с ним общаются порой, только под дулом табельного оружия отца). Дочь Хэйли — отчаянная либералка, имеет «хиппарские» черты, но хиппи не является, хоть и защищает природу, и принимает легкие наркотики.
Говорящая золотая рыбка Клаусс — на самом деле, мозг у Рыбки — человеческий. Просто ЦРУ взяло мозг у Немецкого спортсмена-лыжника, чтобы Германия не выиграла олимпиаду. Часто перемещается по дому в маленькой баночке, перебирая плавниками по полу. Инопланетянин Роджер — просто инопланетянин. Когда-то спас Стэна в «Зоне 51» и теперь живет со Смитами. Толстый и хитрый — именно эти черты наиболее полно раскрыты в Роджере. Страстный любитель париков и выпивки.

Страна: США
Продолжительность: 15х~22 минуты
Перевод:
1. Профессиональный (многоголосый закадровый) - 2x2
2. Профессиональный (многоголосый закадровый) - Filiza Studio
3. Оригинал (английский)
Файл
Формат: MKV
Качество: WEB-DL 1080p
Видео: 1920x1080, (16:9), H.264, ~5000 kbps, 23.976 fps
Аудио №1: AC3, 192 Кбит/сек, 2 канала, 48,0 КГц - 2x2
Аудио №2: AC3, 384 Кбит/сек, 6 каналов, 48,0 КГц - Filiza Studio (первая серия - AC3, 192 Кбит/сек, 2 канала, 48,0 КГц)
Аудио №3: AC3, 384 Кбит/сек, 6 каналов, 48,0 КГц - Оригинал (английский)
Субтитры: Английские

General
Unique ID : 234912657450820435779641123795355487259 (0xB0BA8839AC25356E8E58193F5A62CC1B)
Complete name : E:VideoHDAnimated Series (HD)American Dad Season 11 (WEB-DL 1080p)\01. Blonde Ambition.mkv
Format : Matroska
Format version : Version 4 / Version 2
File size : 896 MiB
Duration : 21mn 9s
Overall bit rate : 5 918 Kbps
Movie name : American Dad Season 11 (WEB-DL | 1080p | v.serij2013)
Encoded date : UTC 2015-10-22 10:00:05
Writing application : mkvmerge v8.2.0 ('World of Adventure') 32bit
Writing library : libebml v1.3.1 + libmatroska v1.4.2
DURATION : 00:21:09.664000000
NUMBER_OF_FRAMES : 39677
NUMBER_OF_BYTES : 30471936
_STATISTICS_WRITING_APP : mkvmerge v8.2.0 ('World of Adventure') 32bit
_STATISTICS_WRITING_DATE_UTC : 2015-10-22 10:00:05
_STATISTICS_TAGS : BPS DURATION NUMBER_OF_FRAMES NUMBER_OF_BYTES
Video
ID : 1
Format : AVC
Format/Info : Advanced Video Codec
Format profile : High@L4.0
Format settings, CABAC : Yes
Format settings, ReFrames : 4 frames
Codec ID : V_MPEG4/ISO/AVC
Duration : 21mn 9s
Bit rate : 5 032 Kbps
Width : 1 920 pixels
Height : 1 080 pixels
Display aspect ratio : 16:9
Frame rate mode : Constant
Frame rate : 23.976 fps
Color space : YUV
Chroma subsampling : 4:2:0
Bit depth : 8 bits
Scan type : Progressive
Bits/(Pixel*Frame) : 0.101
Stream size : 762 MiB (85%)
Language : English
Default : Yes
Forced : No
Color primaries : BT.709
Transfer characteristics : BT.709
Matrix coefficients : BT.709
Audio #1
ID : 2
Format : AC-3
Format/Info : Audio Coding 3
Mode extension : CM (complete main)
Format settings, Endianness : Big
Codec ID : A_AC3
Duration : 21mn 9s
Bit rate mode : Constant
Bit rate : 192 Kbps
Channel(s) : 2 channels
Channel positions : Front: L R
Sampling rate : 48.0 KHz
Bit depth : 16 bits
Compression mode : Lossy
Stream size : 29.1 MiB (3%)
Title : MVO (2x2)
Language : Russian
Default : Yes
Forced : No
Audio #2
ID : 3
Format : AC-3
Format/Info : Audio Coding 3
Mode extension : CM (complete main)
Format settings, Endianness : Big
Codec ID : A_AC3
Duration : 21mn 9s
Bit rate mode : Constant
Bit rate : 192 Kbps
Channel(s) : 2 channels
Channel positions : Front: L R
Sampling rate : 48.0 KHz
Bit depth : 16 bits
Compression mode : Lossy
Stream size : 29.1 MiB (3%)
Title : MVO (Filiza Studio)
Language : Russian
Default : No
Forced : No
Audio #3
ID : 4
Format : AC-3
Format/Info : Audio Coding 3
Mode extension : CM (complete main)
Format settings, Endianness : Big
Codec ID : A_AC3
Duration : 21mn 9s
Bit rate mode : Constant
Bit rate : 384 Kbps
Channel(s) : 6 channels
Channel positions : Front: L C R, Side: L R, LFE
Sampling rate : 48.0 KHz
Bit depth : 16 bits
Compression mode : Lossy
Stream size : 58.1 MiB (6%)
Title : Original
Language : English
Default : No
Forced : No
Text
ID : 5
Format : UTF-8
Codec ID : S_TEXT/UTF8
Codec ID/Info : UTF-8 Plain Text
Title : Original
Language : English
Default : No
Forced : No



   Похожие торренты   Торрент   Размер 
В этой теме нет новых непрочитанных сообщений. Американский папаша / American Dad! [S010] (2014) WEB-DL 1080p | P

54 | 14

2.8 ГБ

В этой теме нет новых непрочитанных сообщений. Американский папаша! / American DaD! [08х01-04] (2012) WEB-DL 1080p By Filiza Studio

18 | 5

2.83 ГБ

В этой теме нет новых непрочитанных сообщений. American Dad / Американский Папаша [S05-14] (2008-2017) WEB-DL 720p-1080p HEVC

22 | 105

38.37 ГБ

В этой теме нет новых непрочитанных сообщений. Американский папаша! / American DaD! [08х05-06] (2012) WEB-DL 1080p By Filiza Studio

13 | 3

1.69 ГБ

В этой теме нет новых непрочитанных сообщений. Американский папаша / American Dad! [S09] (2013) WEB-DL 720p | P

52 | 22

9.12 ГБ

В этой теме нет новых непрочитанных сообщений. Американский Папаша / American Dad! [04x01] (2008) WEB-DLRip

0 | 2

271.85 МБ

В этой теме нет новых непрочитанных сообщений. Американский папаша / American Dad! [12х01-05 из 15] (2016) WEB-DL 720p | Filiza

162 | 125

1.48 ГБ




Вы не можете начинать темы
Вы не можете отвечать на сообщения
Вы не можете редактировать свои сообщения
Вы не можете удалять свои сообщения
Вы не можете добавлять вложения

Перейти:  
 Вход
ppkBB3cker v.2 © 2008-2014 @ PPK
[ Time : 0.243s | 17 Queries | GZIP : Off ]

cron