img image001 image001 image001 image001 image001 image001 image001 image001 image001 image001 image001 image001 image001 image001 image001

Planets Sun Sun Sun
Статистика раздачи
Автор: Nickolas3434 | Размер: 1.09 ГБ | Добавлен: 29 ноя 2015
Раздают: 26    Качают: 4
Скачать торрент
Скачать торрент
Описание торрента

СообщениеДобавлено: 29 ноя 2015 


Информация о фильме
Название: Меркано-марсианин
Оригинальное название: Mercano, el marciano
Страна: Аргентина
Год выхода: 2002
Жанр: мультфильм, фантастика, комедия
Режиссер: Хуан Антин / Juan Antin
В ролях: Грасиэла Борхес, Роберто Карнаги, Фабио Алберти, Дамиан Дрейсик, Алехандро Надь, Мануэль Антин, Куэко Жерве, Хуан Антин, Аяр Бласко, Мариано Систер
О фильме: Меркано — марсианин в результате крушения космического корабля оказался в… Буэнос-Айресе. Хулиан — полный девятилетний школьник, помешанный на компьютерах.
Они не говорят на языке друг друга, но это не имеет значения: свои самые счастливые часы Хулиан проводит на сайте mars.com — на виртуальной «Красной планете», созданной тоскующим по родине Меркано. В скором времени мультинациональная корпорация, которую возглавляет отец Хулиана, увидела глобальные коммерческие возможности в виртуальной технологии и похитила Меркано.
Заручившись помощью пестрой банды хиппи — противников технологий и активистов экологов, Хулиан бесстрашно отправляется освобождать своего самого дорогого друга…


Продолжительность: 01:08:35
Перевод: Профессиональный (одноголосый закадровый)
Субтитры: отсутствуют
Файл
Формат: AVI
Качество: DVDRip [by rs.bandito]
Видео: 688x384 (1.79:1), 25 fps, XviD build 73 ~1873 kbps avg, 0.28 bit/pixel
Аудио #1: Русский: 48 kHz, AC3 Dolby Digital, 2/0 (L,R) ch, ~192.00 kbps avg | Профессиональный (одноголосый закадровый) |
Аудио #2: Испанский: 48 kHz, AC3 Dolby Digital, 2/0 (L,R) ch, ~192.00 kbps avg | Оригинал |

General
Complete name : G:NBNMerkanoMercano_el_marciano_DVDRip.avi
Format : AVI
Format/Info : Audio Video Interleave
File size : 1.09 GiB
Duration : 1h 8mn
Overall bit rate : 2 273 Kbps
Writing application : VirtualDubMod 1.5.10.3 | www.virtualdub-fr.org || (build 2550/release)
Writing library : VirtualDubMod build 2550/release
Video #0
ID : 0
Format : MPEG-4 Visual
Format profile : Advanced Simple@L5
Format settings, BVOP : Yes
Format settings, QPel : No
Format settings, GMC : No warppoints
Format settings, Matrix : Default (H.263)
Codec ID : XVID
Codec ID/Hint : XviD
Duration : 1h 8mn
Bit rate : 1 875 Kbps
Width : 688 pixels
Height : 384 pixels
Display aspect ratio : 16:9
Frame rate : 25.000 fps
Color space : YUV
Chroma subsampling : 4:2:0
Bit depth : 8 bits
Scan type : Progressive
Bits/(Pixel*Frame) : 0.284
Stream size : 920 MiB (82%)
Writing library : XviD 73
Audio #1
ID : 1
Format : AC-3
Format/Info : Audio Coding 3
Mode extension : CM (complete main)
Codec ID : 2000
Duration : 1h 8mn
Bit rate mode : Constant
Bit rate : 192 Kbps
Channel(s) : 2 channels
Channel positions : Front: L R
Sampling rate : 48.0 KHz
Bit depth : 16 bits
Stream size : 94.2 MiB (8%)
Alignment : Split accross interleaves
Interleave, duration : 40 ms (1.00 video frame)
Interleave, preload duration : 500 ms
Title : rus
Audio #2
ID : 2
Format : AC-3
Format/Info : Audio Coding 3
Mode extension : CM (complete main)
Codec ID : 2000
Duration : 1h 8mn
Bit rate mode : Constant
Bit rate : 192 Kbps
Channel(s) : 2 channels
Channel positions : Front: L R
Sampling rate : 48.0 KHz
Bit depth : 16 bits
Stream size : 94.2 MiB (8%)
Alignment : Split accross interleaves
Interleave, duration : 40 ms (1.00 video frame)
Interleave, preload duration : 500 ms
Title : spa

Автор рипа: domin8



   Похожие торренты   Торрент   Размер 
В этой теме нет новых непрочитанных сообщений. Мой любимый марсианин / My Favorite Martian (1999) DVDRip от TorrentClub

10 | 3

1.37 ГБ

В этой теме нет новых непрочитанных сообщений. Марсианин / The Martian (2015) TS

1057 | 25

1.37 ГБ

В этой теме нет новых непрочитанных сообщений. Марсианин / The Martian (2015) TS

137 | 26

706.93 МБ

В этой теме нет новых непрочитанных сообщений. Марсианин / The Martian (2015) TS

1087 | 31

2.06 ГБ

В этой теме нет новых непрочитанных сообщений. Марсианин / The Martian (2015) CAMRip

9732 | 483

2.06 ГБ

В этой теме нет новых непрочитанных сообщений. Марсианин / The Martian (2015) CAMRip

1156 | 96

854.89 МБ

В этой теме нет новых непрочитанных сообщений. Марсианин / The Martian (2015) CAMRip | L1

76 | 7

1.96 ГБ




Вы не можете начинать темы
Вы не можете отвечать на сообщения
Вы не можете редактировать свои сообщения
Вы не можете удалять свои сообщения
Вы не можете добавлять вложения

Перейти:  
Для Мосгорсуда, Роскомнадзора и рекламодателей: mosgorsud-torrent[собачка]yandex.ru
cron
 Вход
ppkBB3cker v.2 © 2008-2014 @ PPK
[ Time : 0.099s | 15 Queries | GZIP : Off ]

Торрент трекер RUTOR.IN, Не можете зайти на rutor.org? Какой новый адрес рутор? Какое зеркало рутор? Не работает rutor.org и зеркала? Тогда наш торрент специально для вас. Rutor.in неофициальное зеркало rutor. В случае если у Вас заблокирован rutor или вдруг Вы не можете на него зайти, то Вы без труда сможете скачать бесплатно и без рекламы последние новинки кино, игр, сериалов и прочего у нас, на Rutor.in. Не нужно использовать прокси, чтобы зайти на рутор, достаточно воспользоваться нашим ресурсом. Все новые фильмы, игры, сериалы, книги и музыка за 2013 и 2014 годы через торрент бесплатно. Скачивайте фильмы в хорошем качестве, игры для пк, xbox, playstation без регистрации. У нас вы найдете новые Зарубежные сериалы и Русские сериалы 2013, 2014, 2015 годов. Оставайтесь с нами, качайте любимые фильмы, игры, сериалы, книги и музыку.