img image001 image001 image001 image001 image001 image001 image001 image001 image001 image001 image001 image001 image001 image001 image001

Planets Sun Sun Sun
Статистика раздачи
Автор: Nickolas3434 | Размер: 300.41 МБ | Добавлен: 27 дек 2015
Раздают: 63    Качают: 26
Скачать торрент
Скачать торрент
Описание торрента

СообщениеДобавлено: 27 дек 2015 

Кентервильское привидение / Canterville Ghost (1970) DVDRip [480p] от SDIncorporation | P

Информация о фильме
Русское название: Кентервильское привидение
Оригинальное название: Кентервильское привидение
Страна: СССР
Год выпуска: 1970
Жанр: Детектив, Криминал, Драма, мистика
Перевод: Оригинал
Режиссер: Валентина Брумберг, Зинаида Брумберг
Работа над релизом: Nod33Eset(retvil)
69SexyMan
О фильме:
Семья переезжает в особняк, в котором, по легенде, много лет назад муж убил свою жену. По ночам в особняке начинают происходить странные вещи: чьи-то шаги, грохот цепей, и постоянно появлющееся пятно крови на кухне…


Продолжительность: 00:19:17
Качество видео: DVDRip
Видеокодек: AVC
Формат: MKV
Битрейт видео: ~2100 Kbps
Размер кадра: 640x480
Аудиокодек: AC-3
Битрейт аудио: 128 Kbps
Аудио #1: Русский ( 48 kHz, FLAC, 2 channels, 128 Kbps) — Профессиональный многоголосый закадровый
Субтитры #1: Russian Subtitles


General
Unique ID : 219529382634556745114118749429729196157 (0xA527D2381F90A512B2DDD3A54E71F87D)
Complete name : Canterville.Ghost.1970.DVDRip.480p.Russian.SDIncorporation.mkv
Format : Matroska
Format version : Version 4 / Version 2
File size : 300 MiB
Duration : 19mn 17s
Overall bit rate mode : Variable
Overall bit rate : 2 178 Kbps
Movie name : Canterville Ghost [480p] (1970) © SDIncorporation
Encoded date : UTC 2015-12-13 14:20:54
Writing application : mkvmerge v8.6.1 ('Flying') 64bit
Writing library : libebml v1.3.3 + libmatroska v1.4.4
Video
ID : 1
Format : AVC
Format/Info : Advanced Video Codec
Format profile : Main@L3
Format settings, CABAC : Yes
Format settings, ReFrames : 3 frames
Codec ID : V_MPEG4/ISO/AVC
Duration : 19mn 17s
Bit rate mode : Variable
Bit rate : 2 048 Kbps
Maximum bit rate : 2 000 Kbps
Width : 640 pixels
Height : 480 pixels
Display aspect ratio : 4:3
Original display aspect rat : 16:9
Frame rate mode : Constant
Frame rate : 25.000 fps
Standard : NTSC
Color space : YUV
Chroma subsampling : 4:2:0
Bit depth : 8 bits
Scan type : Progressive
Bits/(Pixel*Frame) : 0.267
Stream size : 282 MiB (94%)
Title : Video
Language : Russian
Default : Yes
Forced : No
Color range : Limited
Audio
ID : 3
Format : AC-3
Format/Info : Audio Coding 3
Mode extension : CM (complete main)
Format settings, Endianness : Big
Codec ID : A_AC3
Duration : 19mn 17s
Bit rate mode : Constant
Bit rate : 128 Kbps
Channel(s) : 2 channels
Channel positions : Front: L R
Sampling rate : 48.0 KHz
Frame rate : 31.250 fps (1536 spf)
Compression mode : Lossy
Stream size : 17.7 MiB (6%)
Title : Russian
Language : Russian
Default : Yes
Forced : No
Text
ID : 2
Format : UTF-8
Codec ID : S_TEXT/UTF8
Codec ID/Info : UTF-8 Plain Text
Duration : 18mn 59s
Bit rate : 65 bps
Count of elements : 173
Stream size : 9.09 KiB (0%)
Title : Russian Subtitles
Language : Russian
Default : Yes
Forced : No





Время раздачи: С 8:00 до 22:00
Релиз от: ©SDIncorporation



   Похожие торренты   Торрент   Размер 
В этой теме нет новых непрочитанных сообщений. Кентервильское привидение / Canterville Ghost (1970) HDTVRip 720p от SDIncorporation | P

102 | 14

657.44 МБ

В этой теме нет новых непрочитанных сообщений. Кентервильское привидение / The Canterville Ghost (1996) DVDRip

48 | 3

792.36 МБ

В этой теме нет новых непрочитанных сообщений. Джером К. Джером и др. - «Кентервильское привидение» и другие лучшие повести на английском (2015) PDF

77 | 2

4.56 МБ

В этой теме нет новых непрочитанных сообщений. Привидение / Ghost (1990) DVDRip от NovaLan

15 | 7

3.22 ГБ

В этой теме нет новых непрочитанных сообщений. Привидение / Widziadlo (1984) DVDRip от Pshichko66

81 | 11

1.46 ГБ

В этой теме нет новых непрочитанных сообщений. Привидение / Widziadlo (1984) DVDRip от Pshichko

84 | 33

1.46 ГБ

В этой теме нет новых непрочитанных сообщений. Веселое привидение / Blithe Spirit (1945) DVDRip

7 | 2

1.46 ГБ




Вы не можете начинать темы
Вы не можете отвечать на сообщения
Вы не можете редактировать свои сообщения
Вы не можете удалять свои сообщения
Вы не можете добавлять вложения

Перейти:  
Для Мосгорсуда, Роскомнадзора и рекламодателей: mosgorsud-torrent[собачка]yandex.ru
 Вход
ppkBB3cker v.2 © 2008-2014 @ PPK
[ Time : 0.021s | 14 Queries | GZIP : On ]

Торрент трекер RUTOR.IN, Не можете зайти на rutor.org? Какой новый адрес рутор? Какое зеркало рутор? Не работает rutor.org и зеркала? Тогда наш торрент специально для вас. Rutor.in неофициальное зеркало rutor. В случае если у Вас заблокирован rutor или вдруг Вы не можете на него зайти, то Вы без труда сможете скачать бесплатно и без рекламы последние новинки кино, игр, сериалов и прочего у нас, на Rutor.in. Не нужно использовать прокси, чтобы зайти на рутор, достаточно воспользоваться нашим ресурсом. Все новые фильмы, игры, сериалы, книги и музыка за 2013 и 2014 годы через торрент бесплатно. Скачивайте фильмы в хорошем качестве, игры для пк, xbox, playstation без регистрации. У нас вы найдете новые Зарубежные сериалы и Русские сериалы 2013, 2014, 2015 годов. Оставайтесь с нами, качайте любимые фильмы, игры, сериалы, книги и музыку.