img image001 image001 image001 image001 image001 image001 image001 image001 image001 image001 image001 image001 image001 image001 image001

Planets Sun Sun Sun
Статистика раздачи
Автор: PriZraK | Размер: 696.01 МБ | Добавлен: 31 дек 2015
Раздают: 261    Качают: 9
Скачать торрент
Скачать торрент
Описание торрента

СообщениеДобавлено: 31 дек 2015 

В стране невыученных уроков / In The Land of Unprepared Homework (1969) HDTVRip [720p] от SDIncorporation | P



Информация о фильме
Русское название: В стране невыученных уроков
Оригинальное название: В стране невыученных уроков
Страна: СССР
Год выпуска: 1969
Жанр: Мультфильм, Короткометражка, Семейный
Перевод: Профессиональный многоголосый
Режиссер:
Работа над релизом: Nod33Eset(retvil)
StreetDespair

О фильме:
Сказка о скверном ученике. Маленький лодырь попадает в фантастическую страну, где сталкивается с причудливыми образами собственных невыученных уроков. На пути ему попадаются Полтора Землекопа из неверно решенной арифметической задачи и всевозможные нелепицы, порожденные его же собственными ошибками.



Продолжительность: 00:19:10
Качество видео: HDTVRip 720p
Видеокодек: AVC
Формат: MKV
Битрейт видео: ~5000 Kbps
Размер кадра: 960x720 pixels
Аудиокодек: AC3
Битрейт аудио: 448 Kbps
Аудио #1: Русский ( 48 kHz, AC3 Dolby Digital, 6 channels, 448 Kbps) — Профессиональный многоголосый закадровый
Субтитры #1: Russian Subtitles



General
Unique ID : 224664630975000715742916347789877527697 (0xA904D58297E501DAA6DAA032C7154491)
Complete name : In.The.Land.of.Unprepared.Homework.720p.Russian.SDIncorporation.mkv
Format : Matroska
Format version : Version 4 / Version 2
File size : 696 MiB
Duration : 19mn 10s
Overall bit rate mode : Variable
Overall bit rate : 5 076 Kbps
Movie name : In The Land of Unprepared Homework [720p] (1969) © SDIncorporation
Encoded date : UTC 2015-12-16 22:02:10
Writing application : mkvmerge v8.6.1 ('Flying') 64bit
Writing library : libebml v1.3.3 + libmatroska v1.4.4

Video
ID : 1
Format : AVC
Format/Info : Advanced Video Codec
Format profile : Main@L3.1
Format settings, CABAC : Yes
Format settings, ReFrames : 3 frames
Codec ID : V_MPEG4/ISO/AVC
Duration : 19mn 10s
Bit rate mode : Variable
Bit rate : 4 626 Kbps
Maximum bit rate : 16.0 Mbps
Width : 960 pixels
Height : 720 pixels
Display aspect ratio : 4:3
Original display aspect rat : 16:9
Frame rate mode : Constant
Frame rate : 25.000 fps
Standard : NTSC
Color space : YUV
Chroma subsampling : 4:2:0
Bit depth : 8 bits
Scan type : Progressive
Bits/(Pixel*Frame) : 0.268
Stream size : 634 MiB (91%)
Title : Video
Default : Yes
Forced : No
Color range : Limited

Audio
ID : 2
Format : AC-3
Format/Info : Audio Coding 3
Mode extension : CM (complete main)
Format settings, Endianness : Big
Codec ID : A_AC3
Duration : 19mn 10s
Bit rate mode : Constant
Bit rate : 448 Kbps
Channel(s) : 6 channels
Channel positions : Front: L C R, Side: L R, LFE
Sampling rate : 48.0 KHz
Frame rate : 31.250 fps (1536 spf)
Compression mode : Lossy
Stream size : 61.4 MiB (9%)
Title : Russian
Language : Russian
Default : Yes
Forced : No

Text
ID : 3
Format : UTF-8
Codec ID : S_TEXT/UTF8
Codec ID/Info : UTF-8 Plain Text
Duration : 19mn 3s
Bit rate : 97 bps
Count of elements : 255
Stream size : 13.6 KiB (0%)
Title : Russian Subtitles
Language : Russian
Default : Yes
Forced : No





Время раздачи: С 8:00 до 22:00

Релиз от: ©SDIncorporation



   Похожие торренты   Торрент   Размер 
В этой теме нет новых непрочитанных сообщений. В стране невыученных уроков (1969) DVDRip

470 | 12

346.95 МБ

В этой теме нет новых непрочитанных сообщений. В стране невыученных уроков (1969) DVDRip-AVC от Youtracker

83 | 7

334.71 МБ

В этой теме нет новых непрочитанных сообщений. Лия Гераскина - В стране невыученных уроков (1966) (2010) MP3

82 | 3

505.94 МБ

В этой теме нет новых непрочитанных сообщений. Алиса в стране Кислоты / Alice In Acidland (1969) DVDRip

5 | 34

444.82 МБ

В этой теме нет новых непрочитанных сообщений. Путешествие муравья HDTVRip 720p от SDIncorporation

24 | 2

317.96 МБ

В этой теме нет новых непрочитанных сообщений. Василиса Прекрасная (1977) HDTVRip 720p от SDIncorporation

73 | 9

626.5 МБ

В этой теме нет новых непрочитанных сообщений. Монстр / Monster [01-74 из 74] (2004) HDTVRip 720p от SDIncorporation | Sub

54 | 30

22.74 ГБ




Вы не можете начинать темы
Вы не можете отвечать на сообщения
Вы не можете редактировать свои сообщения
Вы не можете удалять свои сообщения
Вы не можете добавлять вложения

Перейти:  
Для Мосгорсуда, Роскомнадзора и рекламодателей: mosgorsud-torrent[собачка]yandex.ru
 Вход
ppkBB3cker v.2 © 2008-2014 @ PPK
[ Time : 0.022s | 16 Queries | GZIP : Off ]

Торрент трекер RUTOR.IN, Не можете зайти на rutor.org? Какой новый адрес рутор? Какое зеркало рутор? Не работает rutor.org и зеркала? Тогда наш торрент специально для вас. Rutor.in неофициальное зеркало rutor. В случае если у Вас заблокирован rutor или вдруг Вы не можете на него зайти, то Вы без труда сможете скачать бесплатно и без рекламы последние новинки кино, игр, сериалов и прочего у нас, на Rutor.in. Не нужно использовать прокси, чтобы зайти на рутор, достаточно воспользоваться нашим ресурсом. Все новые фильмы, игры, сериалы, книги и музыка за 2013 и 2014 годы через торрент бесплатно. Скачивайте фильмы в хорошем качестве, игры для пк, xbox, playstation без регистрации. У нас вы найдете новые Зарубежные сериалы и Русские сериалы 2013, 2014, 2015 годов. Оставайтесь с нами, качайте любимые фильмы, игры, сериалы, книги и музыку.