img image001 image001 image001 image001 image001 image001 image001 image001 image001 image001 image001 image001 image001 image001 image001

Planets Sun Sun Sun
Статистика раздачи
Автор: Nickolas3434 | Размер: 2.77 ГБ | Добавлен: 08 янв 2016
Раздают: 139    Качают: 14
Скачать торрент
Скачать торрент
Описание торрента

СообщениеДобавлено: 08 янв 2016 



Информация о фильме
Название: Куда покойники уходят умирать
Оригинальное название: Where the Dead Go to Die
Год выхода: 2012
Жанр: Ужасы, анимация
Режиссер: Джимми Кример
В ролях: Линни Куигли, Руби ЛаРокка, Брэндон Слэгли, Джимми Кример, Джошуа Майкл Грин, М. Дот Стрэйндж, Трент Хаага, Деванни Пинн

О фильме:
Группу подростков из неблагополучных семей, проживающих в одном квартале, преследует говорящая собака по кличке Лабби. «Добрая псина» и ее гипноз становятся причиной сюрреалистических путешествий по аду…



Страна: США
Студия: Chainsaw Kiss, Draconian Films
Продолжительность: 01:35:06
Перевод: Авторский (одноголосый) Андрей Дольский

Файл
Формат: MKV
Качество: BDRip 720p
Видео: MPEG-4 AVC, 1280x720, 3520 Кбит/с, 23.976 кадр/с
Аудио#1: Русский (48 kHz, AC3, 6 ch, 448 Кбит/с)
Аудио#2: Английский (48 kHz, AC3, 2 ch, 192 Кбит/с)
Субтитры: Отсутствуют

General
Unique ID : 252666171620244963601385598933823699369 (0xBE15BC0DCF26A55FB333C48475F8B9A9)
Complete name : C:UsersРоманDesktopWhere the Dead Go to Die (2012) BDRip (720p).mkv
Format : Matroska
Format version : Version 4 / Version 2
File size : 2.77 GiB
Duration : 1h 35mn
Overall bit rate : 4 162 Kbps
Encoded date : UTC 2015-12-09 14:56:22
Writing application : mkvmerge v8.6.1 ('Flying') 64bit
Writing library : libebml v1.3.3 + libmatroska v1.4.4

Video
ID : 3
Format : AVC
Format/Info : Advanced Video Codec
Format profile : Baseline@L3.1
Format settings, CABAC : No
Format settings, ReFrames : 1 frame
Format settings, GOP : M=1, N=12
Codec ID : V_MPEG4/ISO/AVC
Duration : 1h 35mn
Bit rate : 3 520 Kbps
Width : 1 280 pixels
Height : 720 pixels
Display aspect ratio : 16:9
Frame rate mode : Constant
Frame rate : 24.000 fps
Color space : YUV
Chroma subsampling : 4:2:0
Bit depth : 8 bits
Scan type : Progressive
Bits/(Pixel*Frame) : 0.159
Stream size : 2.34 GiB (85%)
Language : English
Default : Yes
Forced : No

Audio #1
ID : 1
Format : AC-3
Format/Info : Audio Coding 3
Mode extension : CM (complete main)
Format settings, Endianness : Big
Codec ID : A_AC3
Duration : 1h 35mn
Bit rate mode : Constant
Bit rate : 448 Kbps
Channel(s) : 6 channels
Channel positions : Front: L C R, Side: L R, LFE
Sampling rate : 48.0 KHz
Frame rate : 31.250 fps (1536 spf)
Compression mode : Lossy
Stream size : 305 MiB (11%)
Title : Дольский
Language : Russian
Default : Yes
Forced : No

Audio #2
ID : 2
Format : AC-3
Format/Info : Audio Coding 3
Mode extension : CM (complete main)
Format settings, Endianness : Big
Codec ID : A_AC3
Duration : 1h 35mn
Bit rate mode : Constant
Bit rate : 192 Kbps
Channel(s) : 2 channels
Channel positions : Front: L R
Sampling rate : 48.0 KHz
Frame rate : 31.250 fps (1536 spf)
Compression mode : Lossy
Stream size : 131 MiB (5%)
Title : Оригинал
Language : English
Default : No
Forced : No





   Похожие торренты   Торрент   Размер 
В этой теме нет новых непрочитанных сообщений. Куда покойники уходят умирать / Where the Dead Go to Die (2012) DVDRip | A

130 | 36

1.47 ГБ

В этой теме нет новых непрочитанных сообщений. Брошенный умирать / Left for Dead (2007) DVDRip

11 | 10

690.88 МБ

В этой теме нет новых непрочитанных сообщений. Брошенный умирать / Left for Dead (2007) DVDRip

1 | 35

770.98 МБ

В этой теме нет новых непрочитанных сообщений. Гарольд и Кумар уходят в отрыв / Harold & Kumar Go to White Castle (2004) BDRip 720p | Unrated

15 | 3

5.6 ГБ

В этой теме нет новых непрочитанных сообщений. Гарольд и Кумар уходят в отрыв / Harold and Kumar Go to White Castle (2004) BDRip 720p от Leonardo and Scarabey | Расширенная версия

137 | 21

2.42 ГБ

В этой теме нет новых непрочитанных сообщений. Слёзы - Из Рок-н-ролла Уходят Мертвыми (2012) MP3

10 | 3

152.76 МБ

В этой теме нет новых непрочитанных сообщений. Слёзы - Из рок-н-ролла уходят мертвыми (2012) MP3

1 | 3

372.59 МБ




Вы не можете начинать темы
Вы не можете отвечать на сообщения
Вы не можете редактировать свои сообщения
Вы не можете удалять свои сообщения
Вы не можете добавлять вложения

Перейти:  
Для Мосгорсуда, Роскомнадзора и рекламодателей: mosgorsud-torrent[собачка]yandex.ru
 Вход
ppkBB3cker v.2 © 2008-2014 @ PPK
[ Time : 0.019s | 14 Queries | GZIP : Off ]

Торрент трекер RUTOR.IN, Не можете зайти на rutor.org? Какой новый адрес рутор? Какое зеркало рутор? Не работает rutor.org и зеркала? Тогда наш торрент специально для вас. Rutor.in неофициальное зеркало rutor. В случае если у Вас заблокирован rutor или вдруг Вы не можете на него зайти, то Вы без труда сможете скачать бесплатно и без рекламы последние новинки кино, игр, сериалов и прочего у нас, на Rutor.in. Не нужно использовать прокси, чтобы зайти на рутор, достаточно воспользоваться нашим ресурсом. Все новые фильмы, игры, сериалы, книги и музыка за 2013 и 2014 годы через торрент бесплатно. Скачивайте фильмы в хорошем качестве, игры для пк, xbox, playstation без регистрации. У нас вы найдете новые Зарубежные сериалы и Русские сериалы 2013, 2014, 2015 годов. Оставайтесь с нами, качайте любимые фильмы, игры, сериалы, книги и музыку.