img image001 image001 image001 image001 image001 image001 image001 image001 image001 image001 image001 image001 image001 image001 image001

Planets Sun Sun Sun
Статистика раздачи
Автор: Nickolas3434 | Размер: 311.45 МБ | Добавлен: 09 янв 2016
Раздают: 155    Качают: 9
Скачать торрент
Скачать торрент
Описание торрента

СообщениеДобавлено: 09 янв 2016 



Информация о фильме
Название: Том и Джерри: Полет на Марс
Оригинальное название: Tom and Jerry Blast Off to Mars!
Год выхода: 2005
Жанр: Мультфильм, фантастика, комедия, семейный
Режиссер: Билл Копп
В ролях: Джефф Беннетт, Кори Бертон, Кэтрин Фиоре, Брэд Гэррет, Джесс Харнелл, Том Кенни, Билл Копп, Роб Полсен, Фрэнк Уэлкер, Билли Уэст

О фильме:
Выходит, что для своих погонь и проказ легендарные Том и Джерри уже использовали все возможные места на нашей старушке-Земле; и теперь забавные зверушки решают совершить вояж наМарс, чтобы повеселиться там от души! Вот, правда, марсиане оказались мелковаты: крошечные гуманоиды посчитали Тома свирепым галактическим монстром и решили расправиться с беднягой.
Марс атакует! А в это время маленький хитрый Джерри был по ошибке признан возвратившимся после долгого отсутствия космическим вождем марсиан. Смогут ли мышонок и кот отложить на время свои разногласия, чтобы спасти Землю от инопланетного вторжения? Ведь для этого потребуются все девять жизней кота Тома!

Страна: США
Продолжительность: 01:14:27
Перевод: Профессиональный (многоголосый, закадровый)

Кодек: H.264
Качество: BDRip
Видео: MPEG-4 AVC, ~ 1000 Кбит/с, 480х272, 23.976 кадр/с
Звук: AAC LC 4.0, 2 ch, ~ 130 Кбит/с

Общее
Полное имя : Tom.&.Jerry.2005.H.264.PSP.BDRip.by.GeneralFilm.mp4
Формат : MPEG-4
Профиль формата : Base Media
Идентификатор кодека : isom (isom/avc1/iso6)
Размер файла : 311 Мбайт
Продолжительность : 1 ч. 14 м.
Режим общего битрейта : Переменный
Общий поток : 585 Кбит/сек
Дата кодирования : UTC 2016-01-07 15:12:19
Дата пометки : UTC 2016-01-07 15:12:19

Видео
Идентификатор : 1
Формат : AVC
Формат/Информация : Advanced Video Codec
Профиль формата : Main@L4.1
Параметр CABAC формата : Да
Параметр ReFrames формата : 9 кадров
Идентификатор кодека : avc1
Идентификатор кодека/Информация : Advanced Video Coding
Продолжительность : 1 ч. 14 м.
Битрейт : 459 Кбит/сек
Максимальный битрейт : 3859 Кбит/сек
Ширина : 480 пикселей
Высота : 272 пикселя
Соотношение сторон : 16:9
Режим частоты кадров : Постоянный
Частота кадров : 23,976 (24000/1001) кадра/сек
Цветовое пространство : YUV
Субдискретизация насыщенности : 4:2:0
Битовая глубина : 8 бит
Тип развёртки : Прогрессивная
Бит/(Пиксели*Кадры) : 0.147
Размер потока : 244 Мбайт (78%)
Заголовок : 264@GPAC0.5.2-DEV-rev248-g39d5978-master
Библиотека кодирования : x264 core 146 r2538 121396c
Настройки программы : cabac=1 / ref=9 / deblock=1:1:1 / analyse=0x1:0x131 / me=umh / subme=10 / psy=1 / psy_rd=1.00:0.00 / mixed_ref=1 / me_range=16 / chroma_me=1 / trellis=2 / 8x8dct=0 / cqm=0 / deadzone=21,11 / fast_pskip=0 / chroma_qp_offset=-2 / threads=12 / lookahead_threads=1 / sliced_threads=0 / nr=0 / decimate=1 / interlaced=0 / bluray_compat=0 / constrained_intra=0 / bframes=3 / b_pyramid=0 / b_adapt=2 / b_bias=0 / direct=3 / weightb=1 / open_gop=0 / weightp=2 / keyint=250 / keyint_min=23 / scenecut=40 / intra_refresh=0 / rc_lookahead=60 / rc=2pass / mbtree=1 / bitrate=459 / ratetol=1.0 / qcomp=0.70 / qpmin=0 / qpmax=69 / qpstep=4 / cplxblur=20.0 / qblur=0.5 / ip_ratio=1.40 / aq=1:0.60
Дата кодирования : UTC 2016-01-07 15:12:19
Дата пометки : UTC 2016-01-07 15:15:04

Аудио
Идентификатор : 2
Формат : AAC
Формат/Информация : Advanced Audio Codec
Профиль формата : LC
Идентификатор кодека : 40
Продолжительность : 1 ч. 14 м.
Вид битрейта : Переменный
Битрейт : 122 Кбит/сек
Максимальный битрейт : 151 Кбит/сек
Каналы : 2 канала
Расположение каналов : Front: L R
Частота : 48,0 КГц
Частота кадров : 46,875 кадров/сек (1024 spf)
Метод сжатия : С потерями
Размер потока : 65,0 Мбайт (21%)
Дата кодирования : UTC 2016-01-07 14:24:32
Дата пометки : UTC 2016-01-07 15:15:04





Релиз от:



   Похожие торренты   Торрент   Размер 
В этой теме нет новых непрочитанных сообщений. Том и Джерри: Полет на Марс / Tom and Jerry Blast Off to Mars! (2005) BDRip-AVC | iPad

9 | 4

1.14 ГБ

В этой теме нет новых непрочитанных сообщений. Том и Джерри: Полет на Марс / Tom and Jerry Blast Off to Mars! (2005) BDRip 720 от HDClub | P, A

225 | 32

3.94 ГБ

В этой теме нет новых непрочитанных сообщений. Том и Джерри: Полет на Марс / Tom and Jerry Blast Off to Mars! (2005) BDRip (AVC) от ExKinoRay

61 | 12

1.49 ГБ

В этой теме нет новых непрочитанных сообщений. Том и Джерри: Полет на Марс / Tom and Jerry Blast Off to Mars! (2005) BDRip от Dean24

125 | 10

1.46 ГБ

В этой теме нет новых непрочитанных сообщений. Том и Джерри: Полет на Марс / Tom and Jerry Blast Off to Mars! (2005) BDRip 1080 от HDClub | P, A

86 | 19

5.78 ГБ

В этой теме нет новых непрочитанных сообщений. Том и Джерри: Полет на Марс / Tom and Jerry Blast Off to Mars! (2005) Blu-ray 1080p | D

0 | 5

14.87 ГБ

В этой теме нет новых непрочитанных сообщений. Том и Джерри: Полет на Марс / Tom and Jerry Blast Off to Mars! (2005) HDRip | КПК | P

81 | 8

336.41 МБ




Вы не можете начинать темы
Вы не можете отвечать на сообщения
Вы не можете редактировать свои сообщения
Вы не можете удалять свои сообщения
Вы не можете добавлять вложения

Перейти:  
Для Мосгорсуда, Роскомнадзора и рекламодателей: mosgorsud-torrent[собачка]yandex.ru
 Вход
ppkBB3cker v.2 © 2008-2014 @ PPK
[ Time : 0.024s | 15 Queries | GZIP : Off ]

Торрент трекер RUTOR.IN, Не можете зайти на rutor.org? Какой новый адрес рутор? Какое зеркало рутор? Не работает rutor.org и зеркала? Тогда наш торрент специально для вас. Rutor.in неофициальное зеркало rutor. В случае если у Вас заблокирован rutor или вдруг Вы не можете на него зайти, то Вы без труда сможете скачать бесплатно и без рекламы последние новинки кино, игр, сериалов и прочего у нас, на Rutor.in. Не нужно использовать прокси, чтобы зайти на рутор, достаточно воспользоваться нашим ресурсом. Все новые фильмы, игры, сериалы, книги и музыка за 2013 и 2014 годы через торрент бесплатно. Скачивайте фильмы в хорошем качестве, игры для пк, xbox, playstation без регистрации. У нас вы найдете новые Зарубежные сериалы и Русские сериалы 2013, 2014, 2015 годов. Оставайтесь с нами, качайте любимые фильмы, игры, сериалы, книги и музыку.