img image001 image001 image001 image001 image001 image001 image001 image001 image001 image001 image001 image001 image001 image001 image001

Planets Sun Sun Sun
Статистика раздачи
Автор: Nickolas3434 | Размер: 1.4 ГБ | Добавлен: 17 янв 2016
Раздают: 231    Качают: 10
Скачать торрент
Скачать торрент
Описание торрента

СообщениеДобавлено: 17 янв 2016 


Информация о фильме
Название: Приключения пингвинёнка Лоло
Год выхода: 1986-1987
Жанр: Мультфильм, приключения, комедия
Режиссер: Геннадий Сокольский, Кензи Есида
О фильме: В фильме повествуется об обитателях Антарктиды пингвинах, об их существовании, полном опасностей, о приключениях главного героя - пингвиненка Лоло, который, будучи любознательным с самого рождения, узнает много интересного из мира природы и окружающей среды...

Страна: СССР, Япония
Студия: Союзмультфильм, Совинфильм, ЛайфВок корпорейшн, Аист корпорейшн
Продолжительность: 01:17:44
Перевод: Не требуется (оригинальный)
Роли озвучивали: Вячеслав Невинный, Ролан Быков, Елена Санаева, Николай Граббе, Светлана Степченко, Людмила Гнилова, Юрий Андреев, Анатолий Соловьев, Татьяна Курьянова, Алексей Баталов
Файл
Формат: avi
Качество: DVDRip (DVD5)
Видео: XviD, 688x528, 25fps, 2383kbps
Аудио: AC3 Dolby Digital, 2ch, 48000Hz, 192kbps

General
Complete name : Prikluchenia.Pingvinenka.Lolo.1986.O.DVDRip.1400.CurHaJI.avi
Format : AVI
Format/Info : Audio Video Interleave
File size : 1.40 GiB
Duration : 1h 17mn
Overall bit rate : 2 585 Kbps
Movie name : Prikluchenia.Pingvinenka.Lolo.1986.O.DVDRip.1400.CurHaJI
Writing application : VirtualDubMod 1.5.10.3 | www.virtualdub-fr.org || (build 2550/release)
Writing library : VirtualDub build 35491/release
Video
ID : 0
Format : MPEG-4 Visual
Format profile : Advanced Simple@L5
Format settings, BVOP : 1
Format settings, QPel : No
Format settings, GMC : No warppoints
Format settings, Matrix : Custom
Codec ID : XVID
Codec ID/Hint : XviD
Duration : 1h 17mn
Bit rate : 2 383 Kbps
Width : 688 pixels
Height : 528 pixels
Display aspect ratio : 4:3
Frame rate : 25.000 fps
Color space : YUV
Chroma subsampling : 4:2:0
Bit depth : 8 bits
Scan type : Progressive
Compression mode : Lossy
Bits/(Pixel*Frame) : 0.262
Stream size : 1.29 GiB (92%)
Writing library : XviD 1.2.1 (UTC 2008-12-04)
Audio
ID : 1
Format : AC-3
Format/Info : Audio Coding 3
Mode extension : CM (complete main)
Format settings, Endianness : Big
Codec ID : 2000
Duration : 1h 17mn
Bit rate mode : Constant
Bit rate : 192 Kbps
Channel(s) : 2 channels
Channel positions : Front: L R
Sampling rate : 48.0 KHz
Bit depth : 16 bits
Compression mode : Lossy
Stream size : 107 MiB (7%)
Alignment : Split accross interleaves
Interleave, duration : 40 ms (1.00 video frame)
Interleave, preload duration : 500 ms



Релиз от:



   Похожие торренты   Торрент   Размер 
В этой теме нет новых непрочитанных сообщений. Приключения пингвинёнка Лоло (1986-1987) DVDRip

241 | 11

741.18 МБ

В этой теме нет новых непрочитанных сообщений. Приключения пингвинёнка Лоло (1986-1987) DVDRip - KINOREAKTOR

268 | 34

1.08 ГБ

В этой теме нет новых непрочитанных сообщений. Приключения пингвиненка Лоло (1986-1987) DVD5

38 | 8

3.52 ГБ

В этой теме нет новых непрочитанных сообщений. Мелодия - Приключения Петрова и Васечкина, обыкновенные и невероятные (1986 -1987) MP3

125 | 6

342.98 МБ

В этой теме нет новых непрочитанных сообщений. Трансформеры / Transformers G1 [S03-04+bonus] (1986-1987) DVDRip

173 | 232

11.3 ГБ

В этой теме нет новых непрочитанных сообщений. Следствие ведут Колобки [01-04 из 04] (1986-1987) DVDRip-AVC

31 | 9

343.46 МБ

В этой теме нет новых непрочитанных сообщений. Приключения поросёнка Фунтика (1986-1988) DVDRip

164 | 5

699.13 МБ




Вы не можете начинать темы
Вы не можете отвечать на сообщения
Вы не можете редактировать свои сообщения
Вы не можете удалять свои сообщения
Вы не можете добавлять вложения

Перейти:  
Для Мосгорсуда, Роскомнадзора и рекламодателей: mosgorsud-torrent[собачка]yandex.ru
 Вход
ppkBB3cker v.2 © 2008-2014 @ PPK
[ Time : 0.058s | 17 Queries | GZIP : Off ]

cron