img image001 image001 image001 image001 image001 image001 image001 image001 image001 image001 image001 image001 image001 image001 image001

Planets Sun Sun Sun
Статистика раздачи
Автор: Nickolas3434 | Размер: 746.4 МБ | Добавлен: 17 янв 2016
Раздают: 164    Качают: 6
Скачать торрент
Скачать торрент
Описание торрента

СообщениеДобавлено: 17 янв 2016 


Информация о фильме
Название: Звездный патруль: Легенда об Орине
Оригинальное название: Starchaser: The Legend of Orin
Страна: Корея Южная, США
Год выхода: 1985
Жанр: мультфильм, фантастика, приключения
Режиссер: Стивен Хан / Steven Hahn
В ролях: Джо Колиган, Кармен Ардженциано, Ноэль Норт, Энтони Де Лонгис, Tyke Caravelli, Лес Тремейн, Кен Сэнсом, Джон Мошитта мл., Дэрил Бартли, Джон Гарвуд
О фильме:
Глубоко под землей в Мире Шахты живут люди, никогда не видевшие солнечного света и не верящие в его существование. Под управлением надсмотрщиков-роботов жестокого повелителя Зайгона они, каждый день рискуя своей жизнью, добывают для него рубидимитовые кристаллы, получая взамен жалкие подачки еды. И только один из них, Орин, случайно обнаружив волшебную рукоятку от меча, решает бросить вызов Зайгону, найти дорогу во внешний мир и освободить своих соплеменников.

Продолжительность: 01:40:15
Перевод: Авторский (одноголосый, закадровый) Алексеев
Субтитры: Отсутствуют
Файл
Формат: AVI
Качество: DVDRip [by rs.bandito]
Видео: 640x272 (2.35:1), 23.976 fps, XviD build 73 ~904 kbps avg, 0.22 bit/pixel
Аудио: 48 kHz, MPEG Layer 3, 2 ch, ~128.00 kbps avg

General
Complete name : Starchaser_The_Legend_of_Orin_DVDRip.avi
Format : AVI
Format/Info : Audio Video Interleave
File size : 746 MiB
Duration : 1h 40mn
Overall bit rate : 1 041 Kbps
Movie name : Starchaser: The Legend of Orin [ripped by domin8]
Genre : Child's
Writing application : VirtualDubMod 1.5.10.3 | www.virtualdub-fr.org || (build 2550/release)
Original source form/Name : Cartoon
Video #0
ID : 0
Format : MPEG-4 Visual
Format profile : Advanced Simple@L5
Format settings, BVOP : Yes
Format settings, QPel : No
Format settings, GMC : No warppoints
Format settings, Matrix : Default (H.263)
Codec ID : XVID
Codec ID/Hint : XviD
Duration : 1h 40mn
Bit rate : 904 Kbps
Width : 640 pixels
Height : 272 pixels
Display aspect ratio : 2.35:1
Frame rate : 23.976 fps
Color space : YUV
Chroma subsampling : 4:2:0
Bit depth : 8 bits
Scan type : Progressive
Bits/(Pixel*Frame) : 0.217
Stream size : 648 MiB (87%)
Writing library : XviD 73
Audio #1
ID : 1
Format : MPEG Audio
Format version : Version 1
Format profile : Layer 3
Mode : Joint stereo
Mode extension : MS Stereo
Codec ID : 55
Codec ID/Hint : MP3
Duration : 1h 40mn
Bit rate mode : Constant
Bit rate : 128 Kbps
Channel(s) : 2 channels
Sampling rate : 48.0 KHz
Stream size : 91.6 MiB (12%)
Alignment : Aligned on interleaves
Interleave, duration : 42 ms (1.00 video frame)
Interleave, preload duration : 504 ms
Writing library : LAME3.99r
Encoding settings : -m j -V 4 -q 0 -lowpass 17 -b 128



Автор рипа: domin8



   Похожие торренты   Торрент   Размер 
В этой теме нет новых непрочитанных сообщений. Звездный патруль: Легенда об Орине / Starchaser: The Legend of Orin (1985) DVDRip от rs.bandito | A,P

50 | 4

1.62 ГБ

В этой теме нет новых непрочитанных сообщений. Звездный патруль: Легенда об Орине / Starchaser: The Legend of Orin (1985) DVDRip

2 | 5

766.56 МБ

В этой теме нет новых непрочитанных сообщений. Звездный патруль: Легенда об Орине / Starchaser: The Legend of Orin (1985) DVDRip от NovaLan | P, A

156 | 9

1.61 ГБ

В этой теме нет новых непрочитанных сообщений. Звездный патруль: Легенда об Орине / Starchaser: The Legend of Orin (Стивен Хан / Steven Hahn) [1985, мультфильм, фантастика, приключения, DVDRip] AVO+MVO

7 | 2

1.62 ГБ

В этой теме нет новых непрочитанных сообщений. Легенда / Legend (1985) DVDRip | Режиссерская версия

13 | 4

2.18 ГБ

В этой теме нет новых непрочитанных сообщений. Легенда / Legend [Режиссерская версия] (1985) DVDRip

0 | 15

1.34 ГБ

В этой теме нет новых непрочитанных сообщений. Легенда / Legend (1985) BDRip 720p | Director's Cut

9 | 3

8.66 ГБ




Вы не можете начинать темы
Вы не можете отвечать на сообщения
Вы не можете редактировать свои сообщения
Вы не можете удалять свои сообщения
Вы не можете добавлять вложения

Перейти:  
Для Мосгорсуда, Роскомнадзора и рекламодателей: mosgorsud-torrent[собачка]yandex.ru
 Вход
ppkBB3cker v.2 © 2008-2014 @ PPK
[ Time : 0.044s | 14 Queries | GZIP : Off ]

Торрент трекер RUTOR.IN, Не можете зайти на rutor.org? Какой новый адрес рутор? Какое зеркало рутор? Не работает rutor.org и зеркала? Тогда наш торрент специально для вас. Rutor.in неофициальное зеркало rutor. В случае если у Вас заблокирован rutor или вдруг Вы не можете на него зайти, то Вы без труда сможете скачать бесплатно и без рекламы последние новинки кино, игр, сериалов и прочего у нас, на Rutor.in. Не нужно использовать прокси, чтобы зайти на рутор, достаточно воспользоваться нашим ресурсом. Все новые фильмы, игры, сериалы, книги и музыка за 2013 и 2014 годы через торрент бесплатно. Скачивайте фильмы в хорошем качестве, игры для пк, xbox, playstation без регистрации. У нас вы найдете новые Зарубежные сериалы и Русские сериалы 2013, 2014, 2015 годов. Оставайтесь с нами, качайте любимые фильмы, игры, сериалы, книги и музыку.