img image001 image001 image001 image001 image001 image001 image001 image001 image001 image001 image001 image001 image001 image001 image001

Planets Sun Sun Sun
Статистика раздачи
Автор: Nickolas3434 | Размер: 270.67 МБ | Добавлен: 18 янв 2016
Раздают: 532    Качают: 45
Скачать торрент
Скачать торрент
Описание торрента

СообщениеДобавлено: 18 янв 2016 


Информация о фильме
Название: Миньоны: Мини-фильмы
Оригинальное название: Minions Mini-Movies
Год выпуска: 2015
Жанр: Мультфильм, короткометражный, комедия, приключения, семейный
Выпущено: США, Illumination Entertainment
Режиссер: Кайл Балда, Пьер Соффин
В ролях: Пьер Соффин, Миранда Косгров, Элси Фишер, Дэна Гайер
О фильме: После успешного ограбления музея Мэдж замечает, что Бинки потерял соску. И Бинки возвращается назад в музей. Обманув систему безопасности музея, он находит свою соску в руках у статуи. Тут появляется охранник, от которого Бинки легко избавляется.

Файл
Качество: HDRip (AVC)
Видео: MPEG-4 AVC, ~ 2650 Кбит/с, 1024x556, 23.976 кадр/с
Аудио: Русский (AC3, 6 ch, 384 Кбит/с), английский (AC3, 6 ch, 448 Кбит/с)
Размер: 270.67 МБ
Продолжительность: 3 x ~ 00:04:30
Перевод: Дублированный
Субтитры: Русские, английские
Озвучивание первой серии - дублированное, 2-ой и 3-ей серии перевод не требуется.
x264 [info]: frame I:68 Avg QP:14.02 size:109479
x264 [info]: frame P:1770 Avg QP:17.28 size: 28070
x264 [info]: frame B:4516 Avg QP:18.26 size: 6835
x264 [info]: consecutive B-frames: 6.9% 6.5% 11.4% 37.8% 8.8% 11.0% 2.3% 3.1% 2.0% 10.2%
x264 [info]: mb I I16..4: 22.0% 55.6% 22.4%
x264 [info]: mb P I16..4: 2.0% 18.4% 2.4% P16..4: 26.4% 28.6% 9.8% 3.8% 0.6% skip: 8.1%
x264 [info]: mb B I16..4: 0.1% 1.7% 0.2% B16..8: 25.5% 17.0% 3.2% direct: 4.3% skip:47.9% L0:37.9% L1:45.7% BI:16.4%
x264 [info]: 8x8 transform intra:77.9% inter:51.5%
x264 [info]: direct mvs spatial:99.0% temporal:1.0%
x264 [info]: coded y,uvDC,uvAC intra: 86.2% 86.2% 68.1% inter: 18.5% 22.3% 12.2%
x264 [info]: i16 v,h,dc,p: 16% 6% 11% 67%
x264 [info]: i8 v,h,dc,ddl,ddr,vr,hd,vl,hu: 7% 10% 7% 10% 12% 11% 14% 12% 17%
x264 [info]: i4 v,h,dc,ddl,ddr,vr,hd,vl,hu: 10% 10% 5% 8% 16% 13% 15% 10% 14%
x264 [info]: i8c dc,h,v,p: 32% 34% 15% 19%
x264 [info]: Weighted P-Frames: Y:8.9% UV:5.2%
x264 [info]: ref P L0: 54.5% 10.4% 14.2% 6.6% 4.6% 3.3% 2.5% 1.4% 1.2% 1.0% 0.3% 0.0%
x264 [info]: ref B L0: 79.0% 11.7% 4.4% 1.9% 1.2% 0.8% 0.6% 0.3% 0.1%
x264 [info]: ref B L1: 93.7% 6.3%
x264 [info]: kb/s:2656.40

Общее
Уникальный идентификатор : 253836034248323809732768380515188768909 (0xBEF70ABC13D7CCFC8024496878B8808D)
Полное имя : D:ЗагрузкиMinions.Mini-Movie.2015.HDRip.(AVC).ExKinoRay1.Binky.Nelson.Unpacified.2015.x264.HDRip.(AVC).ExKinoRay.mkv
Формат : Matroska
Версия формата : Version 2
Размер файла : 99,9 Мбайт
Продолжительность : 4 м. 34 с.
Общий поток : 3053 Кбит/сек
Название фильма : Неугомонный Бинки Нельсон.2015.Rip by: ollan
Дата кодирования : UTC 2016-01-17 16:45:26
Программа кодирования : mkvmerge v5.6.0 ('Kenya Kane') built on May 27 2012 16:44:04
Библиотека кодирования : libebml v1.2.3 + libmatroska v1.3.0
Видео
Идентификатор : 1
Формат : AVC
Формат/Информация : Advanced Video Codec
Профиль формата : High@L4.1
Параметр CABAC формата : Да
Параметр ReFrames формата : 10 кадров
Идентификатор кодека : V_MPEG4/ISO/AVC
Продолжительность : 4 м. 34 с.
Битрейт : 2213 Кбит/сек
Ширина : 1024 пикселя
Высота : 556 пикселей
Соотношение сторон : 1,85:1
Режим частоты кадров : Постоянный
Частота кадров : 23,976 кадра/сек
Цветовое пространство : YUV
Субдискретизация насыщенности : 4:2:0
Битовая глубина : 8 бит
Тип развёртки : Прогрессивная
Бит/(Пиксели*Кадры) : 0.162
Размер потока : 70,7 Мбайт (71%)
Библиотека кодирования : x264 core 125 r2200 999b753
Настройки программы : cabac=1 / ref=10 / deblock=1:-3:-3 / analyse=0x3:0x133 / me=umh / subme=11 / psy=1 / psy_rd=1.00:0.10 / mixed_ref=1 / me_range=48 / chroma_me=1 / trellis=2 / 8x8dct=1 / cqm=0 / deadzone=21,11 / fast_pskip=0 / chroma_qp_offset=-3 / threads=12 / lookahead_threads=2 / sliced_threads=0 / nr=0 / decimate=0 / interlaced=0 / bluray_compat=0 / constrained_intra=0 / bframes=9 / b_pyramid=2 / b_adapt=2 / b_bias=0 / direct=3 / weightb=1 / open_gop=0 / weightp=2 / keyint=240 / keyint_min=23 / scenecut=40 / intra_refresh=0 / rc=2pass / mbtree=0 / bitrate=2213 / ratetol=1.0 / qcomp=0.60 / qpmin=0 / qpmax=69 / qpstep=4 / cplxblur=20.0 / qblur=0.5 / ip_ratio=1.40 / pb_ratio=1.30 / aq=1:1.00
Default : Да
Forced : Нет
Аудио #1
Идентификатор : 2
Формат : AC-3
Формат/Информация : Audio Coding 3
Расширение режима : CM (complete main)
Параметр Endianness формата : Big
Идентификатор кодека : A_AC3
Продолжительность : 4 м. 34 с.
Вид битрейта : Постоянный
Битрейт : 384 Кбит/сек
Каналы : 6 каналов
Расположение каналов : Front: L C R, Side: L R, LFE
Частота : 48,0 КГц
Битовая глубина : 16 бит
Метод сжатия : С потерями
Размер потока : 12,6 Мбайт (13%)
Заголовок : Дублированный
Язык : Russian
Default : Да
Forced : Нет
Аудио #2
Идентификатор : 3
Формат : AC-3
Формат/Информация : Audio Coding 3
Расширение режима : CM (complete main)
Параметр Endianness формата : Big
Идентификатор кодека : A_AC3
Продолжительность : 4 м. 34 с.
Вид битрейта : Постоянный
Битрейт : 448 Кбит/сек
Каналы : 6 каналов
Расположение каналов : Front: L C R, Side: L R, LFE
Частота : 48,0 КГц
Битовая глубина : 16 бит
Метод сжатия : С потерями
Размер потока : 14,7 Мбайт (15%)
Язык : English
Default : Нет
Forced : Нет
Текст #1
Идентификатор : 4
Формат : ASS
Идентификатор кодека : S_TEXT/ASS
Идентификатор кодека/Информация : Advanced Sub Station Alpha
Метод сжатия : Без потерь
Язык : Russian
Default : Нет
Forced : Нет
Текст #2
Идентификатор : 5
Формат : ASS
Идентификатор кодека : S_TEXT/ASS
Идентификатор кодека/Информация : Advanced Sub Station Alpha
Метод сжатия : Без потерь
Язык : English
Default : Нет
Forced : Нет
Общее
Уникальный идентификатор : 187419695607250132415817489986934025734 (0x8CFFB86BBA4B279782195F8E0E402E06)
Полное имя : D:ЗагрузкиMinions.Mini-Movie.2015.HDRip.(AVC).ExKinoRay2.Competetion.2015.x264.HDRip.(AVC).ExKinoRay.mkv
Формат : Matroska
Версия формата : Version 2
Размер файла : 72,6 Мбайт
Продолжительность : 3 м. 47 с.
Общий поток : 2680 Кбит/сек
Название фильма : Соревнование.2015.Rip by: ollan
Дата кодирования : UTC 2016-01-17 16:56:55
Программа кодирования : mkvmerge v5.6.0 ('Kenya Kane') built on May 27 2012 16:44:04
Библиотека кодирования : libebml v1.2.3 + libmatroska v1.3.0
Видео
Идентификатор : 1
Формат : AVC
Формат/Информация : Advanced Video Codec
Профиль формата : High@L4.1
Параметр CABAC формата : Да
Параметр ReFrames формата : 10 кадров
Идентификатор кодека : V_MPEG4/ISO/AVC
Продолжительность : 3 м. 47 с.
Битрейт : 2233 Кбит/сек
Ширина : 1024 пикселя
Высота : 556 пикселей
Соотношение сторон : 1,85:1
Режим частоты кадров : Постоянный
Частота кадров : 23,976 кадра/сек
Цветовое пространство : YUV
Субдискретизация насыщенности : 4:2:0
Битовая глубина : 8 бит
Тип развёртки : Прогрессивная
Бит/(Пиксели*Кадры) : 0.164
Размер потока : 59,0 Мбайт (81%)
Библиотека кодирования : x264 core 125 r2200 999b753
Настройки программы : cabac=1 / ref=10 / deblock=1:-3:-3 / analyse=0x3:0x133 / me=umh / subme=11 / psy=1 / psy_rd=1.00:0.10 / mixed_ref=1 / me_range=48 / chroma_me=1 / trellis=2 / 8x8dct=1 / cqm=0 / deadzone=21,11 / fast_pskip=0 / chroma_qp_offset=-3 / threads=12 / lookahead_threads=2 / sliced_threads=0 / nr=0 / decimate=0 / interlaced=0 / bluray_compat=0 / constrained_intra=0 / bframes=9 / b_pyramid=2 / b_adapt=2 / b_bias=0 / direct=3 / weightb=1 / open_gop=0 / weightp=2 / keyint=240 / keyint_min=23 / scenecut=40 / intra_refresh=0 / rc=2pass / mbtree=0 / bitrate=2233 / ratetol=1.0 / qcomp=0.60 / qpmin=0 / qpmax=69 / qpstep=4 / cplxblur=20.0 / qblur=0.5 / ip_ratio=1.40 / pb_ratio=1.30 / aq=1:1.00
Default : Да
Forced : Нет
Аудио
Идентификатор : 2
Формат : AC-3
Формат/Информация : Audio Coding 3
Расширение режима : CM (complete main)
Параметр Endianness формата : Big
Идентификатор кодека : A_AC3
Продолжительность : 3 м. 47 с.
Вид битрейта : Постоянный
Битрейт : 448 Кбит/сек
Каналы : 6 каналов
Расположение каналов : Front: L C R, Side: L R, LFE
Частота : 48,0 КГц
Битовая глубина : 16 бит
Метод сжатия : С потерями
Размер потока : 12,1 Мбайт (17%)
Default : Да
Forced : Нет
Общее
Уникальный идентификатор : 178428344930880026403337066141070492236 (0x863C0C9B302C402BB9339181F2FD824C)
Полное имя : D:ЗагрузкиMinions.Mini-Movie.2015.HDRip.(AVC).ExKinoRay3.Cro.Minion.2015.x264.HDRip.(AVC).ExKinoRay.mkv
Формат : Matroska
Версия формата : Version 2
Размер файла : 98,1 Мбайт
Продолжительность : 4 м. 25 с.
Общий поток : 3106 Кбит/сек
Название фильма : Кроминьоны.2015.Rip by: ollan
Дата кодирования : UTC 2016-01-17 17:03:08
Программа кодирования : mkvmerge v5.6.0 ('Kenya Kane') built on May 27 2012 16:44:04
Библиотека кодирования : libebml v1.2.3 + libmatroska v1.3.0
Видео
Идентификатор : 1
Формат : AVC
Формат/Информация : Advanced Video Codec
Профиль формата : High@L4.1
Параметр CABAC формата : Да
Параметр ReFrames формата : 10 кадров
Идентификатор кодека : V_MPEG4/ISO/AVC
Продолжительность : 4 м. 25 с.
Битрейт : 2657 Кбит/сек
Ширина : 1024 пикселя
Высота : 556 пикселей
Соотношение сторон : 1,85:1
Режим частоты кадров : Постоянный
Частота кадров : 23,976 кадра/сек
Цветовое пространство : YUV
Субдискретизация насыщенности : 4:2:0
Битовая глубина : 8 бит
Тип развёртки : Прогрессивная
Бит/(Пиксели*Кадры) : 0.195
Размер потока : 82,0 Мбайт (84%)
Библиотека кодирования : x264 core 125 r2200 999b753
Настройки программы : cabac=1 / ref=10 / deblock=1:-3:-3 / analyse=0x3:0x133 / me=umh / subme=11 / psy=1 / psy_rd=1.00:0.10 / mixed_ref=1 / me_range=48 / chroma_me=1 / trellis=2 / 8x8dct=1 / cqm=0 / deadzone=21,11 / fast_pskip=0 / chroma_qp_offset=-3 / threads=12 / lookahead_threads=2 / sliced_threads=0 / nr=0 / decimate=0 / interlaced=0 / bluray_compat=0 / constrained_intra=0 / bframes=9 / b_pyramid=2 / b_adapt=2 / b_bias=0 / direct=3 / weightb=1 / open_gop=0 / weightp=2 / keyint=240 / keyint_min=23 / scenecut=40 / intra_refresh=0 / rc=2pass / mbtree=0 / bitrate=2657 / ratetol=1.0 / qcomp=0.60 / qpmin=0 / qpmax=69 / qpstep=4 / cplxblur=20.0 / qblur=0.5 / ip_ratio=1.40 / pb_ratio=1.30 / aq=1:1.00
Default : Да
Forced : Нет
Аудио
Идентификатор : 2
Формат : AC-3
Формат/Информация : Audio Coding 3
Расширение режима : CM (complete main)
Параметр Endianness формата : Big
Идентификатор кодека : A_AC3
Продолжительность : 4 м. 25 с.
Вид битрейта : Постоянный
Битрейт : 448 Кбит/сек
Каналы : 6 каналов
Расположение каналов : Front: L C R, Side: L R, LFE
Частота : 48,0 КГц
Битовая глубина : 16 бит
Метод сжатия : С потерями
Размер потока : 14,2 Мбайт (14%)
Default : Да
Forced : Нет





Релиз от: Rip by:



   Похожие торренты   Торрент   Размер 
В этой теме нет новых непрочитанных сообщений. Миньоны: Мини-фильмы / Minions: Mini-Movie - The Competition [01-03] (2015) BDRip | D

1669 | 197

200.59 МБ

В этой теме нет новых непрочитанных сообщений. Миньоны: Мини-фильмы / Minions: Mini-Movie - The Competition [01-03 из 03] (2015) BDRip 720p | D

4483 | 234

449.47 МБ

В этой теме нет новых непрочитанных сообщений. Миньоны: Мини-фильмы / Minions: Mini-Movie - The Competition [01-03 из 03] (2015) BDRip 1080p | D

1219 | 131

1.31 ГБ

В этой теме нет новых непрочитанных сообщений. Миньоны: Мини-фильмы / Minions: Mini-Movie - The Competition [1-3] (2015) BDRip 1080p | D

2262 | 22

2.05 ГБ

В этой теме нет новых непрочитанных сообщений. Миньоны: Мини-фильмы / Minions: Mini-Movie - The Competition [01-03 из 03] (2015) BDRip-AVC от New Team

1250 | 35

299.63 МБ

В этой теме нет новых непрочитанных сообщений. Миньоны: Мини-фильмы / Minions: Mini-Movie - The Competition [01-03 из 03] (2015) BDRip 1080p от Deadmauvlad | D

678 | 17

1.19 ГБ

В этой теме нет новых непрочитанных сообщений. Миньоны: Мини-фильмы / Minions: Mini-Movie - The Competition [01-03 из 03] (2015) BDRip 720p от GoldenShara | D

909 | 36

324.14 МБ




Вы не можете начинать темы
Вы не можете отвечать на сообщения
Вы не можете редактировать свои сообщения
Вы не можете удалять свои сообщения
Вы не можете добавлять вложения

Перейти:  
Для Мосгорсуда, Роскомнадзора и рекламодателей: mosgorsud-torrent[собачка]yandex.ru
 Вход
ppkBB3cker v.2 © 2008-2014 @ PPK
[ Time : 0.608s | 15 Queries | GZIP : On ]

Торрент трекер RUTOR.IN, Не можете зайти на rutor.org? Какой новый адрес рутор? Какое зеркало рутор? Не работает rutor.org и зеркала? Тогда наш торрент специально для вас. Rutor.in неофициальное зеркало rutor. В случае если у Вас заблокирован rutor или вдруг Вы не можете на него зайти, то Вы без труда сможете скачать бесплатно и без рекламы последние новинки кино, игр, сериалов и прочего у нас, на Rutor.in. Не нужно использовать прокси, чтобы зайти на рутор, достаточно воспользоваться нашим ресурсом. Все новые фильмы, игры, сериалы, книги и музыка за 2013 и 2014 годы через торрент бесплатно. Скачивайте фильмы в хорошем качестве, игры для пк, xbox, playstation без регистрации. У нас вы найдете новые Зарубежные сериалы и Русские сериалы 2013, 2014, 2015 годов. Оставайтесь с нами, качайте любимые фильмы, игры, сериалы, книги и музыку.
cron