img image001 image001 image001 image001 image001 image001 image001 image001 image001 image001 image001 image001 image001 image001 image001

Planets Sun Sun Sun
Статистика раздачи
Автор: Nickolas3434 | Размер: 4.03 ГБ | Добавлен: 19 янв 2016
Раздают: 244    Качают: 45
Скачать торрент
Скачать торрент
Описание торрента

СообщениеДобавлено: 19 янв 2016 


Информация о фильме
Название: Октонавты
Оригинальное название: The Octonauts
Год выхода: 2010
Жанр: мультфильм
Режиссер: Дарра О’Коннелл
В ролях: Кристин Борге, Росс Брин, Тереза Галлахер, Саймон Гринхолл, Mona Grenne, Эйрик Е. Джонсен, Луна Софи Крус, Øyvind Borgemoen Lyse, Майкл Мерфи, Бьорн Алекс Олсен
О фильме:
Октонавты — это динамичная команда из восьми смелых исследователей морских глубин, которые живут на подводной базе — Октопод с разнообразным флотом водных машин. Экипаж Октонавтов всякий раз спешит на помощь, как только в подводном пространстве случаются неприятности. В перерывах между борьбой с опасностями смелая восьмерка встречается с водными обитателями и познает тайные уголки морских глубин.
01. Октонавты и карта чудовищ
02. Спасение леса водорослей
03. Октонавты и касатки
04. Октонавты и полуночная зона
05. Октонавты и краб-декоратор
06. Октонавты и гигантский кальмар
07. Октонавты и морской огурец
08. Октонавты и дельфиненок
09. Октонавты и подводный шторм
10. Октонавты и акула-кит
11. Октонавты и кит-горбач альбинос
12. Октонавты и рак-отшельник
13. Октонавты и ремипедии
14. Октонавты и водоворот
15. Октонавты и рак-щелкун
16. Запутавшиеся киты
17. Октонавты и кальмар вампир!
18. Краб и морской еж
19. Октонавты и Заросли водорослей
20. Октонавты и кит-нарвал
21. Октонавты и голодная рыба-лоцман
22. Октонавты и летучие рыбы
23. Октонавты и враждебные актинии
24. Октонавты и быстрая рыба-парусник
25. Октонавты и бегство от водорослей
26. Октонавты и миксины
27. Октонавты и рыба-собачка


Страна: США, Ирландия, Великобритания
Студия: Brown Bag Films
Продолжительность: ~ 00:12:00 серия
Перевод: Дублированный
Файл
Кодек: XviD / AC3
Качество: WEBRip
Видео: xvid, 720x400 (16:9), 25.000 fps, 1 619 Kbps (0.225 bit/pixel)
Звук: AC-3, 48.0 KHz, 2 ch, 192 Kbps, CBR
General
Complete name : 1 серия. Октонавты и карта чудовищ.avi
Format : AVI
Format/Info : Audio Video Interleave
File size : 157 MiB
Duration : 12mn 4s
Overall bit rate : 1 822 Kbps
Writing application : Lavf54.63.104
Video
ID : 0
Format : xvid
Codec ID : xvid
Duration : 12mn 4s
Bit rate : 1 619 Kbps
Width : 720 pixels
Height : 400 pixels
Display aspect ratio : 16:9
Frame rate : 25.000 fps
Bits/(Pixel*Frame) : 0.225
Stream size : 140 MiB (89%)
Audio
ID : 1
Format : AC-3
Format/Info : Audio Coding 3
Mode extension : CM (complete main)
Format settings, Endianness : Big
Codec ID : 2000
Duration : 12mn 4s
Bit rate mode : Constant
Bit rate : 192 Kbps
Channel(s) : 2 channels
Channel positions : Front: L R
Sampling rate : 48.0 KHz
Bit depth : 16 bits
Compression mode : Lossy
Stream size : 16.6 MiB (11%)
Alignment : Aligned on interleaves
Interleave, duration : 32 ms (0.80 video frame)



   Похожие торренты   Торрент   Размер 
В этой теме нет новых непрочитанных сообщений. Октонавты / The Octonauts [s01] (2010-2011) WEB-DLRip от ExKinoRay | D

6 | 3

8.13 ГБ

В этой теме нет новых непрочитанных сообщений. Октонавты / The Octonauts [s01] (2010-2011) WEB-DLRip 720p от ExKinoRay | D

27 | 12

5.96 ГБ

В этой теме нет новых непрочитанных сообщений. Октонавты / The Octonauts [s01] (2010-2011) WEB-DLRip 1080p от ExKinoRay | D

7 | 4

10.08 ГБ

В этой теме нет новых непрочитанных сообщений. Пчелиные истории / The Hive [01x01-22] (2010) WEBRip 1080p | D

152 | 146

4.56 ГБ

В этой теме нет новых непрочитанных сообщений. Пчелиные истории / The Hive [01x01-21] (2010) WEBRip 1080p | D

256 | 48

4.35 ГБ

В этой теме нет новых непрочитанных сообщений. Кошачий Апокалипсис / Апокалипсис Мяу / Cat Shit One: The Animated Series [01x01 из 12] (2010) (2010) WebRip (720p)

1 | 3

349.56 МБ

В этой теме нет новых непрочитанных сообщений. Творческое объединение 420 - Сборник мультфильмов (2010-2015) WEBRip, WEBRip 1080р

339 | 27

3.14 ГБ




Вы не можете начинать темы
Вы не можете отвечать на сообщения
Вы не можете редактировать свои сообщения
Вы не можете удалять свои сообщения
Вы не можете добавлять вложения

Перейти:  
Для Мосгорсуда, Роскомнадзора и рекламодателей: mosgorsud-torrent[собачка]yandex.ru
 Вход
ppkBB3cker v.2 © 2008-2014 @ PPK
[ Time : 0.027s | 16 Queries | GZIP : Off ]

Торрент трекер RUTOR.IN, Не можете зайти на rutor.org? Какой новый адрес рутор? Какое зеркало рутор? Не работает rutor.org и зеркала? Тогда наш торрент специально для вас. Rutor.in неофициальное зеркало rutor. В случае если у Вас заблокирован rutor или вдруг Вы не можете на него зайти, то Вы без труда сможете скачать бесплатно и без рекламы последние новинки кино, игр, сериалов и прочего у нас, на Rutor.in. Не нужно использовать прокси, чтобы зайти на рутор, достаточно воспользоваться нашим ресурсом. Все новые фильмы, игры, сериалы, книги и музыка за 2013 и 2014 годы через торрент бесплатно. Скачивайте фильмы в хорошем качестве, игры для пк, xbox, playstation без регистрации. У нас вы найдете новые Зарубежные сериалы и Русские сериалы 2013, 2014, 2015 годов. Оставайтесь с нами, качайте любимые фильмы, игры, сериалы, книги и музыку.