img image001 image001 image001 image001 image001 image001 image001 image001 image001 image001 image001 image001 image001 image001 image001

Planets Sun Sun Sun
Статистика раздачи
Автор: Nickolas3434 | Размер: 1.19 ГБ | Добавлен: 19 янв 2016
Раздают: 678    Качают: 17
Скачать торрент
Скачать торрент
Описание торрента

СообщениеДобавлено: 19 янв 2016 

Информация о фильме
Название: Миньоны: Мини-фильмы
Оригинальное название: Minions Mini-Movies
Год выпуска: 2015
Жанр: Мультфильм, короткометражный, комедия, приключения, семейный
Выпущено: США, Illumination Entertainment
Режиссер: Кайл Балда, Пьер Соффин
В ролях: Пьер Соффин, Миранда Косгров, Элси Фишер, Дэна Гайер
О фильме: После успешного ограбления музея Мэдж замечает, что Бинки потерял соску. И Бинки возвращается назад в музей. Обманув систему безопасности музея, он находит свою соску в руках у статуи. Тут появляется охранник, от которого Бинки легко избавляется.

Файл
Качество: BDRip 1080p
Видео: AVC, 1920x1032 (1.860), 23.976 fps, 14.0 Mbps (0.257 bit/pixel)
Аудио: Русский (AC3, 6 ch, 384 Кбит/с), английский (AC3, 6 ch, 640 Кбит/с)
Продолжительность: 3 x ~ 00:04:30
Перевод: Дублированный
Субтитры: Русские, английские
Озвучивание первой серии - дублированное, 2-ой и 3-ей серии перевод не требуется.
avs [info]: 1920x1032p 1:1 @ 2500000/104271 fps (cfr)
x264 [warning]: max bitrate less than average bitrate, assuming CBR
x264 [info]: using SAR=1/1
x264 [info]: using cpu capabilities: MMX2 SSE2Fast LZCNT
x264 [info]: profile Main, level 4.1
x264 [info]: frame I:80 Avg QP:11.61 size:346176
x264 [info]: frame P:2155 Avg QP:14.50 size:104578
x264 [info]: frame B:4120 Avg QP:15.52 size: 36725
x264 [info]: consecutive B-frames: 7.5% 7.3% 32.8% 52.4%
x264 [info]: mb I I16..4: 33.1% 0.0% 66.9%
x264 [info]: mb P I16..4: 40.5% 0.0% 0.0% P16..4: 48.7% 0.0% 0.0% 0.0% 0.0% skip:10.9%
x264 [info]: mb B I16..4: 15.9% 0.0% 0.0% B16..8: 27.7% 0.0% 0.0% direct:20.6% skip:35.8% L0:30.2% L1:41.5% BI:28.3%
x264 [info]: coded y,uvDC,uvAC intra: 84.8% 87.2% 62.6% inter: 33.3% 37.6% 14.6%
x264 [info]: i16 v,h,dc,p: 19% 22% 43% 17%
x264 [info]: i4 v,h,dc,ddl,ddr,vr,hd,vl,hu: 17% 18% 19% 4% 10% 7% 8% 7% 10%
x264 [info]: i8c dc,h,v,p: 53% 24% 17% 5%
x264 [info]: Weighted P-Frames: Y:1.1% UV:0.6%
x264 [info]: kb/s:12204.71
x264 [total]: encoded 6355 frames, 7.44 fps, 12204.71 kb/s
...last pass...
avs [info]: 1920x1032p 1:1 @ 2500000/104271 fps (cfr)
x264 [warning]: max bitrate less than average bitrate, assuming CBR
x264 [info]: using SAR=1/1
x264 [info]: using cpu capabilities: MMX2 SSE2Fast LZCNT
x264 [warning]: target: 14000.00 kbit/s, expected: 12538.68 kbit/s, avg QP: 20.1406
x264 [info]: profile High, level 4.1
x264 [info]: frame I:80 Avg QP:13.24 size:319837
x264 [info]: frame P:2155 Avg QP:15.29 size:106836
x264 [info]: frame B:4120 Avg QP:16.42 size: 38120
x264 [info]: consecutive B-frames: 7.5% 7.3% 32.8% 52.4%
x264 [info]: mb I I16..4: 22.4% 69.9% 7.7%
x264 [info]: mb P I16..4: 5.6% 20.6% 1.9% P16..4: 32.7% 17.4% 10.2% 0.0% 0.0% skip:11.7%
x264 [info]: mb B I16..4: 1.2% 3.3% 0.3% B16..8: 31.9% 10.2% 3.0% direct: 8.6% skip:41.5% L0:39.7% L1:41.9% BI:18.4%
x264 [info]: 8x8 transform intra:72.1% inter:57.5%
x264 [info]: coded y,uvDC,uvAC intra: 89.5% 94.5% 80.7% inter: 35.9% 45.8% 22.6%
x264 [info]: i16 v,h,dc,p: 14% 8% 31% 47%
x264 [info]: i8 v,h,dc,ddl,ddr,vr,hd,vl,hu: 9% 10% 12% 9% 12% 11% 12% 11% 14%
x264 [info]: i4 v,h,dc,ddl,ddr,vr,hd,vl,hu: 9% 8% 6% 9% 15% 14% 15% 11% 13%
x264 [info]: i8c dc,h,v,p: 56% 20% 13% 11%
x264 [info]: Weighted P-Frames: Y:1.2% UV:0.6%
x264 [info]: ref P L0: 52.3% 10.9% 24.7% 8.6% 3.6% 0.0%
x264 [info]: ref B L0: 75.0% 20.5% 4.5%
x264 [info]: ref B L1: 90.5% 9.5%
x264 [info]: kb/s:12461.42
encoded 6355 frames, 1.45 fps, 12461.42 kb/s

General
Unique ID : 176886439339337245783735101070310304257 (0x851316CA896CF474B68DBA2A4CD6EA01)
Complete name : D:DOWNLOADMinions. Mini-Movies. 2015. BDRemux 1080pMinions. Mini-Movies. 2015. BDRip.1080p.DeadmauvladMinions. Mini-Movies. 1 CroMinions.2015.D.BDRip.1080p.Deadmauvlad.mkv
Format : Matroska
Format version : Version 4 / Version 2
File size : 414 MiB
Duration : 4mn 25s
Overall bit rate : 13.1 Mbps
Movie name : CroMinions.2015.BDRip 1080p ** Deadmauvlad **
Encoded date : UTC 2016-01-18 09:05:17
Writing application : mkvmerge v7.8.0 ('River Man') 32bit built on Apr 3 2015 12:11:22
Writing library : libebml v1.3.1 + libmatroska v1.4.2
Video
ID : 1
Format : AVC
Format/Info : Advanced Video Codec
Format profile : High@L4.1
Format settings, CABAC : Yes
Format settings, ReFrames : 4 frames
Codec ID : V_MPEG4/ISO/AVC
Duration : 4mn 25s
Bit rate : 12.5 Mbps
Nominal bit rate : 14.0 Mbps
Width : 1 920 pixels
Height : 1 032 pixels
Display aspect ratio : 1.85:1
Frame rate mode : Constant
Frame rate : 23.976 (24000/1001) fps
Color space : YUV
Chroma subsampling : 4:2:0
Bit depth : 8 bits
Scan type : Progressive
Bits/(Pixel*Frame) : 0.262
Stream size : 394 MiB (95%)
Title : BDRip 1080p ** Deadmauvlad **
Writing library : x264 core 146 r2538 121396c
Encoding settings : cabac=1 / ref=4 / deblock=1:-1:-1 / analyse=0x3:0x113 / me=umh / subme=9 / psy=1 / psy_rd=1.00:0.20 / mixed_ref=1 / me_range=32 / chroma_me=1 / trellis=1 / 8x8dct=1 / cqm=0 / deadzone=21,11 / fast_pskip=1 / chroma_qp_offset=-3 / threads=3 / lookahead_threads=1 / sliced_threads=0 / nr=0 / decimate=0 / interlaced=0 / bluray_compat=0 / constrained_intra=0 / bframes=3 / b_pyramid=2 / b_adapt=2 / b_bias=0 / direct=1 / weightb=1 / open_gop=0 / weightp=2 / keyint=250 / keyint_min=23 / scenecut=40 / intra_refresh=0 / rc_lookahead=50 / rc=2pass / mbtree=1 / bitrate=14000 / ratetol=1.0 / qcomp=0.60 / qpmin=0 / qpmax=69 / qpstep=4 / cplxblur=20.0 / qblur=0.5 / vbv_maxrate=14000 / vbv_bufsize=14000 / nal_hrd=none / filler=0 / ip_ratio=1.40 / aq=1:1.00
Language : Russian
Default : Yes
Forced : No
Color range : Limited
Color primaries : BT.709
Transfer characteristics : BT.709
Matrix coefficients : BT.709
Audio
ID : 2
Format : AC-3
Format/Info : Audio Coding 3
Mode extension : CM (complete main)
Format settings, Endianness : Big
Codec ID : A_AC3
Duration : 4mn 25s
Bit rate mode : Constant
Bit rate : 640 Kbps
Channel(s) : 6 channels
Channel positions : Front: L C R, Side: L R, LFE
Sampling rate : 48.0 KHz
Frame rate : 31.250 fps (1536 spf)
Compression mode : Lossy
Stream size : 20.2 MiB (5%)
Language : Russian
Default : Yes
Forced : No
*************************************
General
Unique ID : 246117397564753527138740032877996790237 (0xB9287C908981DD44A0960D85C763D1DD)
Complete name : D:DOWNLOADMinions. Mini-Movies. 2015. BDRemux 1080pMinions. Mini-Movies. 2015. BDRip.1080p.DeadmauvladMinions. Mini-Movies. 2 Competition.2015.D.BDRip.1080p.Deadmauvlad.mkv
Format : Matroska
Format version : Version 4 / Version 2
File size : 355 MiB
Duration : 3mn 47s
Overall bit rate : 13.1 Mbps
Movie name : BDRip 1080p ** Deadmauvlad **
Encoded date : UTC 2016-01-18 09:06:12
Writing application : mkvmerge v7.8.0 ('River Man') 32bit built on Apr 3 2015 12:11:22
Writing library : libebml v1.3.1 + libmatroska v1.4.2
Video
ID : 1
Format : AVC
Format/Info : Advanced Video Codec
Format profile : High@L4.1
Format settings, CABAC : Yes
Format settings, ReFrames : 4 frames
Codec ID : V_MPEG4/ISO/AVC
Duration : 3mn 47s
Bit rate : 12.5 Mbps
Nominal bit rate : 14.0 Mbps
Width : 1 920 pixels
Height : 1 032 pixels
Display aspect ratio : 1.85:1
Frame rate mode : Constant
Frame rate : 23.976 (24000/1001) fps
Color space : YUV
Chroma subsampling : 4:2:0
Bit depth : 8 bits
Scan type : Progressive
Bits/(Pixel*Frame) : 0.262
Stream size : 338 MiB (95%)
Title : BDRip 1080p ** Deadmauvlad **
Writing library : x264 core 146 r2538 121396c
Encoding settings : cabac=1 / ref=4 / deblock=1:1:1 / analyse=0x3:0x113 / me=umh / subme=9 / psy=1 / psy_rd=0.40:0.00 / mixed_ref=1 / me_range=40 / chroma_me=1 / trellis=1 / 8x8dct=1 / cqm=0 / deadzone=21,11 / fast_pskip=1 / chroma_qp_offset=-2 / threads=3 / lookahead_threads=1 / sliced_threads=0 / nr=0 / decimate=1 / interlaced=0 / bluray_compat=0 / constrained_intra=0 / bframes=5 / b_pyramid=2 / b_adapt=2 / b_bias=0 / direct=1 / weightb=1 / open_gop=0 / weightp=2 / keyint=250 / keyint_min=23 / scenecut=40 / intra_refresh=0 / rc_lookahead=50 / rc=2pass / mbtree=1 / bitrate=14000 / ratetol=1.0 / qcomp=0.60 / qpmin=0 / qpmax=69 / qpstep=4 / cplxblur=20.0 / qblur=0.5 / vbv_maxrate=14000 / vbv_bufsize=14000 / nal_hrd=none / filler=0 / ip_ratio=1.40 / aq=1:0.60
Default : Yes
Forced : No
Color range : Limited
Color primaries : BT.709
Transfer characteristics : BT.709
Matrix coefficients : BT.709
Audio
ID : 2
Format : AC-3
Format/Info : Audio Coding 3
Mode extension : CM (complete main)
Format settings, Endianness : Big
Codec ID : A_AC3
Duration : 3mn 47s
Bit rate mode : Constant
Bit rate : 640 Kbps
Channel(s) : 6 channels
Channel positions : Front: L C R, Side: L R, LFE
Sampling rate : 48.0 KHz
Frame rate : 31.250 fps (1536 spf)
Compression mode : Lossy
Stream size : 17.3 MiB (5%)
Language : Russian
Default : Yes
Forced : No



сравнение с dm1805
http://screenshotcomparison.com/comparison/158557 недокроп во всех сериях.



   Похожие торренты   Торрент   Размер 
В этой теме нет новых непрочитанных сообщений. Миньоны: Мини-фильмы / Minions: Mini-Movie - The Competition [01-03 из 03] (2015) BDRip 1080p | D

1219 | 131

1.31 ГБ

В этой теме нет новых непрочитанных сообщений. Миньоны: Мини-фильмы / Minions: Mini-Movie - The Competition [1-3] (2015) BDRip 1080p | D

2262 | 22

2.05 ГБ

В этой теме нет новых непрочитанных сообщений. Миньоны: Мини-фильмы / Minions: Mini-Movie - The Competition [01-03] (2015) BDRip | D

1669 | 197

200.59 МБ

В этой теме нет новых непрочитанных сообщений. Миньоны: Мини-фильмы / Minions: Mini-Movie - The Competition [01-03 из 03] (2015) BDRip 720p | D

4483 | 234

449.47 МБ

В этой теме нет новых непрочитанных сообщений. Миньоны: Мини-фильмы / Minions: Mini-Movie - The Competition [01-03 из 03] (2015) BDRip-AVC от New Team

1250 | 35

299.63 МБ

В этой теме нет новых непрочитанных сообщений. Миньоны: Мини-фильмы / Minions: Mini-Movie - The Competition [01-03 из 03] (2015) BDRip 720p от GoldenShara | D

909 | 36

324.14 МБ

В этой теме нет новых непрочитанных сообщений. Миньоны: Мини-фильмы / Minions: Mini-Movie - The Competition [01-03 из 03] (2015) HDRip-AVC от ExKinoRay | D

532 | 45

270.67 МБ




Вы не можете начинать темы
Вы не можете отвечать на сообщения
Вы не можете редактировать свои сообщения
Вы не можете удалять свои сообщения
Вы не можете добавлять вложения

Перейти:  
Для Мосгорсуда, Роскомнадзора и рекламодателей: mosgorsud-torrent[собачка]yandex.ru
 Вход
ppkBB3cker v.2 © 2008-2014 @ PPK
[ Time : 0.016s | 14 Queries | GZIP : Off ]
CGP output time : 0.040s | 5 Queries | GZIP : Off

Торрент трекер RUTOR.IN, Не можете зайти на rutor.org? Какой новый адрес рутор? Какое зеркало рутор? Не работает rutor.org и зеркала? Тогда наш торрент специально для вас. Rutor.in неофициальное зеркало rutor. В случае если у Вас заблокирован rutor или вдруг Вы не можете на него зайти, то Вы без труда сможете скачать бесплатно и без рекламы последние новинки кино, игр, сериалов и прочего у нас, на Rutor.in. Не нужно использовать прокси, чтобы зайти на рутор, достаточно воспользоваться нашим ресурсом. Все новые фильмы, игры, сериалы, книги и музыка за 2013 и 2014 годы через торрент бесплатно. Скачивайте фильмы в хорошем качестве, игры для пк, xbox, playstation без регистрации. У нас вы найдете новые Зарубежные сериалы и Русские сериалы 2013, 2014, 2015 годов. Оставайтесь с нами, качайте любимые фильмы, игры, сериалы, книги и музыку.