img image001 image001 image001 image001 image001 image001 image001 image001 image001 image001 image001 image001 image001 image001 image001

Planets Sun Sun Sun
Статистика раздачи
Автор: Nickolas3434 | Размер: 324.14 МБ | Добавлен: 19 янв 2016
Раздают: 909    Качают: 36
Скачать торрент
Скачать торрент
Описание торрента

СообщениеДобавлено: 19 янв 2016 



Миньоны: Мини-фильмы / Minions: Mini-Movie - The Competition






Год выпуска: 2015
Выпущено: США
Жанр: Комедия, анимация, короткометражка
Продолжительность: 3 х ~00:04:00
Перевод: Профессиональный (полное дублирование)




Режиссер: Фабрис Жубер, Брайан Линч, Кайл Балда




В ролях: Пьер Коффан, Крис Рено




Описание: Миньоны хотя и понимают человеческую речь, говорить по-человечески не умеют, но могут произносить отдельные слова, но чаще они общаются на своём языке между собой. Глуповатые, но очень полезные. Интересно, что у некоторых миньонов только один глаз.

















Качество: BDRip 720p
Формат: MKV
Видео кодек: H.264
Аудио кодек: AC3
Видео: 1280x690 (1.85:1), 3000 kbps, 23.976 fps
Аудио: Русский (AC-3, 6ch, 384 kbps) + Английский (AC-3, 6ch, 640 kbps)


Общее
Уникальный идентификатор : 171959444256190378832338239462412847322 (0x815E2F2DB741C623916E4ABCF96308DA)
Полное имя : D:DOWNLOADМини.Миньоны.2015.x264.BDRip.720p1 - Кроминьонцы.mkv
Формат : Matroska
Версия формата : Version 4 / Version 2
Размер файла : 115 Мбайт
Продолжительность : 4 м. 25 с.
Общий поток : 3650 Кбит/сек
Название фильма : CroMinions.2015.BDRemux 1080p -Azureus-
Дата кодирования : UTC 2016-01-18 16:31:58
Программа кодирования : mkvmerge v8.3.0 ('Over the Horizon') 64bit
Библиотека кодирования : libebml v1.3.1 + libmatroska v1.4.2
Видео
Идентификатор : 1
Формат : AVC
Формат/Информация : Advanced Video Codec
Профиль формата : High@L4.1
Параметр CABAC формата : Да
Параметр ReFrames формата : 9 кадров
Идентификатор кодека : V_MPEG4/ISO/AVC
Продолжительность : 4 м. 25 с.
Битрейт : 3000 Кбит/сек
Ширина : 1280 пикселей
Высота : 688 пикселей
Соотношение сторон : 1,85:1
Режим частоты кадров : Постоянный
Частота кадров : 23,976 (24000/1001) кадра/сек
Цветовое пространство : YUV
Субдискретизация насыщенности : 4:2:0
Битовая глубина : 8 бит
Тип развёртки : Прогрессивная
Бит/(Пиксели*Кадры) : 0.142
Размер потока : 95,1 Мбайт (82%)
Библиотека кодирования : x264 core 146 r2538 121396c
Настройки программы : cabac=1 / ref=9 / deblock=1:-1:-1 / analyse=0x3:0x113 / me=umh / subme=11 / psy=1 / psy_rd=1.00:0.00 / mixed_ref=1 / me_range=32 / chroma_me=1 / trellis=2 / 8x8dct=1 / cqm=0 / deadzone=21,11 / fast_pskip=0 / chroma_qp_offset=-2 / threads=12 / lookahead_threads=2 / sliced_threads=0 / nr=0 / decimate=1 / interlaced=0 / bluray_compat=0 / constrained_intra=0 / bframes=8 / b_pyramid=2 / b_adapt=2 / b_bias=0 / direct=3 / weightb=1 / open_gop=0 / weightp=2 / keyint=230 / keyint_min=22 / scenecut=40 / intra_refresh=0 / rc_lookahead=40 / rc=2pass / mbtree=0 / bitrate=3000 / ratetol=1.0 / qcomp=0.60 / qpmin=0 / qpmax=69 / qpstep=4 / cplxblur=20.0 / qblur=0.5 / vbv_maxrate=62500 / vbv_bufsize=78125 / nal_hrd=none / filler=0 / ip_ratio=1.40 / pb_ratio=1.30 / aq=1:1.00
Default : Да
Forced : Нет
Аудио
Идентификатор : 2
Формат : AC-3
Формат/Информация : Audio Coding 3
Расширение режима : CM (complete main)
Параметр Endianness формата : Big
Идентификатор кодека : A_AC3
Продолжительность : 4 м. 25 с.
Вид битрейта : Постоянный
Битрейт : 640 Кбит/сек
Каналы : 6 каналов
Расположение каналов : Front: L C R, Side: L R, LFE
Частота : 48,0 КГц
Частота кадров : 31,250 кадров/сек (1536 spf)
Метод сжатия : С потерями
Размер потока : 20,2 Мбайт (18%)
Default : Да
Forced : Нет



1. Кроминьонцы / CroMinions (00:04:25)
2. Соревнование / Competition (00:03:47)
3. Неугомонный Бинки Нельсон / Binky Nelson unpacified (00:04:34)





LORDKILL / R.G. GoldenShara




   Похожие торренты   Торрент   Размер 
В этой теме нет новых непрочитанных сообщений. Миньоны: Мини-фильмы / Minions: Mini-Movie - The Competition [01-03 из 03] (2015) BDRip 720p | D

4483 | 234

449.47 МБ

В этой теме нет новых непрочитанных сообщений. Миньоны: Мини-фильмы / Minions: Mini-Movie - The Competition [01-03] (2015) BDRip | D

1669 | 197

200.59 МБ

В этой теме нет новых непрочитанных сообщений. Миньоны: Мини-фильмы / Minions: Mini-Movie - The Competition [1-3] (2015) BDRip 1080p | D

2262 | 22

2.05 ГБ

В этой теме нет новых непрочитанных сообщений. Миньоны: Мини-фильмы / Minions: Mini-Movie - The Competition [01-03 из 03] (2015) BDRip 1080p | D

1219 | 131

1.31 ГБ

В этой теме нет новых непрочитанных сообщений. Миньоны: Мини-фильмы / Minions: Mini-Movie - The Competition [01-03 из 03] (2015) BDRip-AVC от New Team

1250 | 35

299.63 МБ

В этой теме нет новых непрочитанных сообщений. Миньоны: Мини-фильмы / Minions: Mini-Movie - The Competition [01-03 из 03] (2015) BDRip 1080p от Deadmauvlad | D

678 | 17

1.19 ГБ

В этой теме нет новых непрочитанных сообщений. Миньоны: Мини-фильмы / Minions: Mini-Movie - The Competition [01-03 из 03] (2015) HDRip-AVC от ExKinoRay | D

532 | 45

270.67 МБ




Вы не можете начинать темы
Вы не можете отвечать на сообщения
Вы не можете редактировать свои сообщения
Вы не можете удалять свои сообщения
Вы не можете добавлять вложения

Перейти:  
Для Мосгорсуда, Роскомнадзора и рекламодателей: mosgorsud-torrent[собачка]yandex.ru
 Вход
ppkBB3cker v.2 © 2008-2014 @ PPK
[ Time : 0.023s | 17 Queries | GZIP : On ]

Торрент трекер RUTOR.IN, Не можете зайти на rutor.org? Какой новый адрес рутор? Какое зеркало рутор? Не работает rutor.org и зеркала? Тогда наш торрент специально для вас. Rutor.in неофициальное зеркало rutor. В случае если у Вас заблокирован rutor или вдруг Вы не можете на него зайти, то Вы без труда сможете скачать бесплатно и без рекламы последние новинки кино, игр, сериалов и прочего у нас, на Rutor.in. Не нужно использовать прокси, чтобы зайти на рутор, достаточно воспользоваться нашим ресурсом. Все новые фильмы, игры, сериалы, книги и музыка за 2013 и 2014 годы через торрент бесплатно. Скачивайте фильмы в хорошем качестве, игры для пк, xbox, playstation без регистрации. У нас вы найдете новые Зарубежные сериалы и Русские сериалы 2013, 2014, 2015 годов. Оставайтесь с нами, качайте любимые фильмы, игры, сериалы, книги и музыку.