img image001 image001 image001 image001 image001 image001 image001 image001 image001 image001 image001 image001 image001 image001 image001

Planets Sun Sun Sun
Статистика раздачи
Автор: PriZraK | Размер: 4.37 ГБ | Добавлен: 27 янв 2016
Раздают: 66    Качают: 10
Скачать торрент
Скачать торрент
Описание торрента

СообщениеДобавлено: 27 янв 2016 

Информация о фильме
Название: В поисках Немо
Оригинальное название: Finding Nemo
Год выхода: 2003
Жанр: мультфильм, комедия, приключения, семейный
Режиссер: Эндрю Стэнтон, Ли Анкрич
В ролях: Альберт Брукс, Эллен ДеДженерес, Александр Гулд, Уиллем Дефо, Эрик Бана, Эллисон Джэнни, Остин Пендлтон, Стивен Рут, Викки Льюис, Джеффри Раш, Элизабет Перкинс, Джо Рэнфт

Дублёры: Ян Цапник (Marlin), Елена Шульман (Dory), Федор Машанов (Nemo), Виктор Костецкий (Gill), Алексей Гурьев (Bloat), Мария Кузнецова (Peach), Валерий Захарьев (Gurgle), Роман Рязанцев (Bubbles), Светлана Репетина (Deb / Flo), Сергей Паршин (Jacques), Владимир Маслаков (Nigel), Валерий Кухарешин (Crush)

О фильме:
Среди прекрасных тропических морских стихий, в районе Большого барьерного рифа в уединении живет рыба-клоун по имени Марлин. Он растит своего единственного сыночка Немо. Океан и существующие в нем опасности очень страшат Марлина, и он как может ограждает сына от них, но молодой Немо, страдающий излишним любопытством, очень хочет разузнать побольше о таинственном рифе, рядом с которым они живут.
Когда Немо по иронии судьбы оказывается вдалеке от дома, да и еще сталкивается с угрозой стать обедом рыбы-танка, Марлин отправляется на поиски сына. Но Марлин, конечно же, понимает, что героический спасатель из него не получится и просит о помощи в поисках, Дори, королевскую синюю рыбу, которая хоть и страдает от того, что почти ничего не помнит, но добрее ее не отыскать во всем безбрежном океане!
Итак, наши герои отправляются в путешествие, в котором их подкарауливают многочисленные трудности и опасности…



Рейтинг MPAA:

Страна: США , Австралия
Студия: Disney Enterprises Inc., Pixar Animation Studios, Walt Disney Pictures
Продолжительность: 01:40:35
Перевод: Профессиональный (дублированный)

Файл
Кодек: H.264
Качество: HDTVRip 1080p
Видео: 1920x1040 (16:9), 23.976 fps, AVC, 5 903 Kbps
Звук: AC3, 320 Кбит/с, 48 kHz (6 ch) Дубляж


General
Complete name                    : Finding Nemo (2003)BDRip-F.H.D.mkv
Format                           : Matroska
File size                        : 4.37 GiB
Duration                         : 1h 40mn
Overall bit rate                 : 6 223 Kbps
Encoded date                     : UTC 2012-07-05 22:24:54
Writing application              : mkvmerge v5.6.0 ('Kenya Kane') built on May 27 2012 16:44:04
Writing library                  : libebml v1.2.3 + libmatroska v1.3.0

Video
ID                               : 1
Format                           : AVC
Format/Info                      : Advanced Video Codec
Format profile                   : High@L4.1
Format settings, CABAC           : Yes
Format settings, ReFrames        : 4 frames
Muxing mode                      : Container profile=Unknown@4.1
Codec ID                         : V_MPEG4/ISO/AVC
Duration                         : 1h 40mn
Bit rate                         : 5 903 Kbps
Width                            : 1 920 pixels
Height                           : 1 040 pixels
Display aspect ratio             : 16:9
Frame rate                       : 23.976 fps
Color space                      : YUV
Chroma subsampling               : 4:2:0
Bit depth                        : 8 bits
Scan type                        : Progressive
Bits/(Pixel*Frame)               : 0.123
Stream size                      : 4.06 GiB (93%)
Writing library                  : x264 core 125 r2200 999b753
Encoding settings                : cabac=1 / ref=4 / deblock=1:-2:-2 / analyse=0x3:0x113 / me=umh / subme=10 / psy=1 / psy_rd=0.80:0.10 / mixed_ref=1 / me_range=32 / chroma_me=1 / trellis=2 / 8x8dct=1 / cqm=0 / deadzone=21,11 / fast_pskip=0 / chroma_qp_offset=-3 / threads=6 / lookahead_threads=1 / sliced_threads=0 / nr=0 / decimate=1 / interlaced=0 / bluray_compat=0 / constrained_intra=0 / bframes=5 / b_pyramid=2 / b_adapt=2 / b_bias=0 / direct=3 / weightb=1 / open_gop=0 / weightp=2 / keyint=240 / keyint_min=23 / scenecut=40 / intra_refresh=0 / rc=2pass / mbtree=0 / bitrate=5903 / ratetol=1.0 / qcomp=0.60 / qpmin=0 / qpmax=69 / qpstep=4 / cplxblur=20.0 / qblur=0.5 / ip_ratio=1.40 / pb_ratio=1.30 / aq=2:0.80
Color primaries                  : BT.709-5, BT.1361, IEC 61966-2-4, SMPTE RP177
Transfer characteristics         : BT.709-5, BT.1361
Matrix coefficients              : BT.709-5, BT.1361, IEC 61966-2-4 709, SMPTE RP177

Audio
ID                               : 2
Format                           : AC-3
Format/Info                      : Audio Coding 3
Mode extension                   : CM (complete main)
Codec ID                         : A_AC3
Duration                         : 1h 40mn
Bit rate mode                    : Constant
Bit rate                         : 320 Kbps
Channel(s)                       : 6 channels
Channel positions                : Front: L C R, Side: L R, LFE
Sampling rate                    : 48.0 KHz
Bit depth                        : 16 bits
Video delay                      : 22ms
Stream size                      : 230 MiB (5%)
Language                         : Russian
 

 

 


Релиз от:



   Похожие торренты   Торрент   Размер 
В этой теме нет новых непрочитанных сообщений. В поисках Немо / Finding Nemo (2003) HDTVRip

517 | 18

1.45 ГБ

В этой теме нет новых непрочитанных сообщений. В Поисках Немо / Finding Nemo (2003) BDRemux 1080p

96 | 8

17.66 ГБ

В этой теме нет новых непрочитанных сообщений. В поисках Немо / Finding Nemo (2003) BDRip 1080p

534 | 29

5.77 ГБ

В этой теме нет новых непрочитанных сообщений. В поисках Немо / Finding Nemo (2003) BDRip 1080p | 3D-Video

760 | 10

10.31 ГБ

В этой теме нет новых непрочитанных сообщений. В поисках Немо / Finding Nemo (2003) DVDRip

41 | 7

670.58 МБ

В этой теме нет новых непрочитанных сообщений. В поисках Немо / Finding Nemo (2003) BDRip

2223 | 103

1.45 ГБ

В этой теме нет новых непрочитанных сообщений. В поисках Немо / Finding Nemo (2003) BDRip-AVC от R.G. HD-Films | 60 fps

339 | 16

3.97 ГБ




Вы не можете начинать темы
Вы не можете отвечать на сообщения
Вы не можете редактировать свои сообщения
Вы не можете удалять свои сообщения
Вы не можете добавлять вложения

Перейти:  
Для Мосгорсуда, Роскомнадзора и рекламодателей: mosgorsud-torrent[собачка]yandex.ru
 Вход
ppkBB3cker v.2 © 2008-2014 @ PPK
[ Time : 0.064s | 15 Queries | GZIP : Off ]

Торрент трекер RUTOR.IN, Не можете зайти на rutor.org? Какой новый адрес рутор? Какое зеркало рутор? Не работает rutor.org и зеркала? Тогда наш торрент специально для вас. Rutor.in неофициальное зеркало rutor. В случае если у Вас заблокирован rutor или вдруг Вы не можете на него зайти, то Вы без труда сможете скачать бесплатно и без рекламы последние новинки кино, игр, сериалов и прочего у нас, на Rutor.in. Не нужно использовать прокси, чтобы зайти на рутор, достаточно воспользоваться нашим ресурсом. Все новые фильмы, игры, сериалы, книги и музыка за 2013 и 2014 годы через торрент бесплатно. Скачивайте фильмы в хорошем качестве, игры для пк, xbox, playstation без регистрации. У нас вы найдете новые Зарубежные сериалы и Русские сериалы 2013, 2014, 2015 годов. Оставайтесь с нами, качайте любимые фильмы, игры, сериалы, книги и музыку.