img image001 image001 image001 image001 image001 image001 image001 image001 image001 image001 image001 image001 image001 image001 image001

Planets Sun Sun Sun
Статистика раздачи
Автор: PriZraK | Размер: 4.37 ГБ | Добавлен: 27 янв 2016
Раздают: 18    Качают: 50
Скачать торрент
Скачать торрент
Описание торрента

СообщениеДобавлено: 27 янв 2016 

Информация о фильме
Название: Храбрая сердцем
Оригинальное название: Brave
Год выхода: 2010
Жанр: Мультфильм, Фэнтези, Комедия, Приключения, Семейный
Режиссер: Марк Эндрюс, Бренда Чэпман, Стив Пурселл
В ролях: Келли Макдоналд, Эмма Томпсон, Билли Коннолли, Джули Уолтерс, Робби Колтрейн, Кевин МакКидд, Крэйг Фергюсон, Сэлли Кингхорн, Эйлид Фрайзер, Пейджи Баркер...

Сюжет фильма:
Испокон веков мифы и легенды окутывают загадочной пеленой живописные отроги Шотландских гор. Искусной лучнице Мериде приходится выбирать свой путь в жизни самостоятельно, и однажды она отказывается следовать древним традициям королевства, бросая вызов могущественным шотландским кланам и их предводителям: нескладному лорду МакГаффину, угрюмому лорду Макинтошу и сварливому лорду Дингволлу. Неосторожные поступки Мериды грозят повергнуть королевство в хаос, и тогда она отправляется за советом к эксцентричной отшельнице, которая вместо помощи накладывает на Мериду опасное заклятье. Юной принцессе предстоит полагаться только на собственную храбрость, чтобы преодолеть могущественное волшебство и победить самого страшного зверя из тех, что водятся в горных долинах.

«Change your fate / Измени свою судьбу»



Выпущено: США
Продолжительность: 01:34:12
Перевод: Дублированный
Субтитры: Russian(Full)
Бюджет Фильма: $185 000 000
Кассовые сборы: $534 073 527

Файл
Качество: BDRip 1080p (исходник Blu-ray Disc)
Видео: 1920x804, 6197 Кбит/сек, 23.976 кадр/сек, AVC, x264, 2.39:1, 0.167 Бит/(Пиксели*Кадры)
Аудио: AC-3, 448 Кбит/сек, 6 канала(ов), 48,0 КГц
Чаптеры: Есть
Размер: 4.37 Гб
Отдельно на Я народ:
Аудио: AC-3, 448 Кбит/сек, 6 канала(ов), 48,0 КГц (Украинский дубляж)
Format                                   : Matroska
Format version                           : Version 2
File size                                : 4.37 GiB
Duration                                 : 1h 34mn
Overall bit rate                         : 6 647 Kbps
Movie name                               : Храбрая сердцем.(2012).BDRip.1080p.[NoLimits-Team]
Encoded date                             : UTC 2012-11-21 06:40:27
Writing application                      : mkvmerge v5.8.0 ('No Sleep / Pillow') built on Sep  2 2012 15:37:04
Writing library                          : libebml v1.2.3 + libmatroska v1.3.0

Video
ID                                       : 1
Format                                   : AVC
Format/Info                              : Advanced Video Codec
Format profile                           : High@L4.1
Format settings, CABAC                   : Yes
Format settings, ReFrames                : 5 frames
Codec ID                                 : V_MPEG4/ISO/AVC
Duration                                 : 1h 34mn
Bit rate                                 : 6 197 Kbps
Width                                    : 1 920 pixels
Height                                   : 804 pixels
Display aspect ratio                     : 2.40:1
Frame rate mode                          : Constant
Frame rate                               : 23.976 fps
Color space                              : YUV
Chroma subsampling                       : 4:2:0
Bit depth                                : 8 bits
Scan type                                : Progressive
Bits/(Pixel*Frame)                       : 0.167
Stream size                              : 3.99 GiB (91%)
Title                                    : Храбрая сердцем / Brave (2012) BDRip 1080p от NOLIMITS-TEAM
Writing library                          : x264 core 129 r2230 1cffe9f
Encoding settings                        : cabac=1 / ref=5 / deblock=1:0:0 / analyse=0x3:0x133 / me=umh / subme=10 / psy=1 / psy_rd=1.00:0.10 / mixed_ref=1 / me_range=64 / chroma_me=1 / trellis=2 / 8x8dct=1 / cqm=0 / deadzone=21,11 / fast_pskip=0 / chroma_qp_offset=-3 / threads=12 / lookahead_threads=2 / sliced_threads=0 / nr=0 / decimate=0 / interlaced=0 / bluray_compat=0 / constrained_intra=0 / bframes=8 / b_pyramid=2 / b_adapt=2 / b_bias=0 / direct=3 / weightb=1 / open_gop=0 / weightp=2 / keyint=240 / keyint_min=24 / scenecut=40 / intra_refresh=0 / rc_lookahead=100 / rc=2pass / mbtree=1 / bitrate=6197 / ratetol=1.3 / qcomp=0.70 / qpmin=0 / qpmax=51 / qpstep=4 / cplxblur=20.0 / qblur=0.5 / ip_ratio=1.40 / aq=1:1.00
Language                                 : Russian
Default                                  : Yes
Forced                                   : No

Audio
ID                                       : 2
Format                                   : AC-3
Format/Info                              : Audio Coding 3
Mode extension                           : CM (complete main)
Format settings, Endianness              : Big
Codec ID                                 : A_AC3
Duration                                 : 1h 34mn
Bit rate mode                            : Constant
Bit rate                                 : 448 Kbps
Channel(s)                               : 6 channels
Channel positions                        : Front: L C R, Side: L R, LFE
Sampling rate                            : 48.0 KHz
Bit depth                                : 16 bits
Compression mode                         : Lossy
Stream size                              : 302 MiB (7%)
Title                                    : Дублированный
Language                                 : Russian
Default                                  : Yes
Forced                                   : No

Text
ID                                       : 3
Format                                   : UTF-8
Codec ID                                 : S_TEXT/UTF8
Codec ID/Info                            : UTF-8 Plain Text
Title                                    : Russian(Full)
Language                                 : Russian
Default                                  : No
Forced                                   : No

Menu
00:00:00.000                             : en:Chapter 01
00:04:22.845                             : en:Chapter 02
00:09:17.431                             : en:Chapter 03
00:12:53.355                             : en:Chapter 04
00:14:00.256                             : en:Chapter 05
00:16:10.469                             : en:Chapter 06
00:17:36.680                             : en:Chapter 07
00:22:55.791                             : en:Chapter 08
00:27:22.891                             : en:Chapter 09
00:28:51.229                             : en:Chapter 10
00:30:54.852                             : en:Chapter 11
00:34:00.371                             : en:Chapter 12
00:36:03.494                             : en:Chapter 13
00:39:06.927                             : en:Chapter 14
00:41:55.095                             : en:Chapter 15
00:43:27.980                             : en:Chapter 16
00:47:05.739                             : en:Chapter 17
00:48:22.357                             : en:Chapter 18
00:51:04.060                             : en:Chapter 19
00:52:33.859                             : en:Chapter 20
00:54:01.154                             : en:Chapter 21
00:54:45.699                             : en:Chapter 22
00:57:30.864                             : en:Chapter 23
00:59:00.161                             : en:Chapter 24
01:02:48.181                             : en:Chapter 25
01:03:27.386                             : en:Chapter 26
01:09:57.735                             : en:Chapter 27
01:10:37.274                             : en:Chapter 28
01:12:35.726                             : en:Chapter 29
01:13:39.498                             : en:Chapter 30
01:15:35.489                             : en:Chapter 31
01:16:59.072                             : en:Chapter 32
01:17:37.110                             : en:Chapter 33
01:19:48.200                             : en:Chapter 34
01:23:16.783                             : en:Chapter 35
01:24:38.656                             : en:Chapter 36
01:33:27.601                             : en:Chapter 37
01:34:11.979                             : en:Chapter 38



Релиз Группа | Автор Рипа:



   Похожие торренты   Торрент   Размер 
В этой теме нет новых непрочитанных сообщений. Храбрая сердцем / Brave (2012) BDRip 1080p | НТВ+

200 | 9

7.18 ГБ

В этой теме нет новых непрочитанных сообщений. Храбрая сердцем / Brave (2012) BDRip 1080p

316 | 14

4.37 ГБ

В этой теме нет новых непрочитанных сообщений. Храбрая сердцем / Brave (2012) BDRip 1080p | 3D-Video

81 | 10

5.46 ГБ

В этой теме нет новых непрочитанных сообщений. Храбрая сердцем / Brave (2012) BDRip 1080p от HQ-ViDEO | Лицензия

245 | 9

6.57 ГБ

В этой теме нет новых непрочитанных сообщений. Храбрая сердцем в 3Д / Brave 3D (2012) BDRip 1080p от Youtracker | 3D-Video

64 | 12

8.9 ГБ

В этой теме нет новых непрочитанных сообщений. Храбрая сердцем / Brave (2012) BDRip 1080p от Leonardo and Scarabey | Лицензия

773 | 66

4.34 ГБ

В этой теме нет новых непрочитанных сообщений. Храбрая сердцем / Brave (2012) HDRip 1080p | тизер

35 | 2

21.42 МБ




Вы не можете начинать темы
Вы не можете отвечать на сообщения
Вы не можете редактировать свои сообщения
Вы не можете удалять свои сообщения
Вы не можете добавлять вложения

Перейти:  
Для Мосгорсуда, Роскомнадзора и рекламодателей: mosgorsud-torrent[собачка]yandex.ru
 Вход
ppkBB3cker v.2 © 2008-2014 @ PPK
[ Time : 0.027s | 15 Queries | GZIP : Off ]

Торрент трекер RUTOR.IN, Не можете зайти на rutor.org? Какой новый адрес рутор? Какое зеркало рутор? Не работает rutor.org и зеркала? Тогда наш торрент специально для вас. Rutor.in неофициальное зеркало rutor. В случае если у Вас заблокирован rutor или вдруг Вы не можете на него зайти, то Вы без труда сможете скачать бесплатно и без рекламы последние новинки кино, игр, сериалов и прочего у нас, на Rutor.in. Не нужно использовать прокси, чтобы зайти на рутор, достаточно воспользоваться нашим ресурсом. Все новые фильмы, игры, сериалы, книги и музыка за 2013 и 2014 годы через торрент бесплатно. Скачивайте фильмы в хорошем качестве, игры для пк, xbox, playstation без регистрации. У нас вы найдете новые Зарубежные сериалы и Русские сериалы 2013, 2014, 2015 годов. Оставайтесь с нами, качайте любимые фильмы, игры, сериалы, книги и музыку.