img image001 image001 image001 image001 image001 image001 image001 image001 image001 image001 image001 image001 image001 image001 image001

Planets Sun Sun Sun
Статистика раздачи
Автор: Nickolas3434 | Размер: 351.06 МБ | Добавлен: 28 янв 2016
Раздают: 1    Качают: 1
Скачать торрент
Скачать торрент
Описание торрента

СообщениеДобавлено: 28 янв 2016 

Киборг-убийца (1 серия из ?)


Перевод: Любительский (одноголосый)
Формат: WEBRip, AVI, DivX, AC3
Страна: Россия

Жанр: боевик, триллер, машинима
Продолжительность: ~00:16:00 серия
Год выпуска: 2016

Описание: классический боевик в анимационном исполнении, на кибер-тематику.

Рейтинг на IMDB: none/10
Рейтинг MPAA: NC-17

Видео: 720x404 (1.78:1), 25 fps, DivX 5 MPEG-4 ~2650 kbps avg, 0.364 bit/pixel
Аудио: 48 kHz, AC3, 2 ch, ~384.00 kbps avg

Доп. информация: В этой версии сериала - САМОДЕЛЬНАЯ музыка, но на youtube и vk есть этот сериал с профессиональной музыкой!!!

По задумке это классический боевик, с элементами триллера. Серии менее 15 минут, не считая титров, но довольно содержательные. В титрах, в сюжете ничего лишнего нет, во 2-й серии многие моменты будут объяснены, хотя, конечно, есть тут и условности, но они незначительны.
Возможно, после 2-й серии появится пародийная озвучка на переводчиков 90-х.
Создано в The Movies.

Общее
General
Format : AVI
Format/Info : Audio Video Interleave
File size : 351 MiB
Duration : 16mn 7s
Overall bit rate : 3 044 Kbps
Movie name : 1. Вступление
Writing application : Lavf56.9.100

Video
ID : 0
Format : MPEG-4 Visual
Format profile : Advanced Simple@L5
Format settings, BVOP : 2
Format settings, QPel : No
Format settings, GMC : No warppoints
Format settings, Matrix : Default (MPEG)
Muxing mode : Packed bitstream
Codec ID : DX50
Codec ID/Hint : DivX 5
Duration : 16mn 7s
Bit rate : 2 650 Kbps
Width : 720 pixels
Height : 404 pixels
Display aspect ratio : 16:9
Frame rate : 25.000 fps
Color space : YUV
Chroma subsampling : 4:2:0
Bit depth : 8 bits
Scan type : Progressive
Compression mode : Lossy
Bits/(Pixel*Frame) : 0.364
Stream size : 306 MiB (87%)
Writing library : XviD 64

Audio
ID : 1
Format : AC-3
Format/Info : Audio Coding 3
Mode extension : CM (complete main)
Format settings, Endianness : Big
Codec ID : 2000
Duration : 16mn 7s
Bit rate mode : Constant
Bit rate : 384 Kbps
Channel(s) : 2 channels
Channel positions : Front: L R
Sampling rate : 48.0 KHz
Compression mode : Lossy
Stream size : 44.3 MiB (13%)
Alignment : Aligned on interleaves
Interleave, duration : 32 ms (0.80 video frame)


1. Вступление








   Похожие торренты   Торрент   Размер 
В этой теме нет новых непрочитанных сообщений. Киборг-убийца Трейлер [2016, боевик, триллер, машинима, DVDRip]

26 | 7

48.5 МБ

В этой теме нет новых непрочитанных сообщений. Колония, 1 сезон 1-3 серия из 10 / Colony [LostFilm] (Хуан Хосе Кампанелла) [2016, фантастика, боевик, триллер, WEBRip, P]

32 | 11

1.69 ГБ

В этой теме нет новых непрочитанных сообщений. Колония, 1 сезон 1-2 серия из 10 / Colony [LostFilm] (Хуан Хосе Кампанелла) [2016, фантастика, боевик, триллер, WEBRip, P]

139 | 51

1.15 ГБ

В этой теме нет новых непрочитанных сообщений. 5-я волна / The 5th Wave (Дж. Блэйксон) [2016, Фантастика, боевик, триллер, приключения, TeleSynch] DUB

12626 | 823

1.37 ГБ

В этой теме нет новых непрочитанных сообщений. Колония, 1 сезон 1-2 серии из 10 / Colony [NewStudio] (Райан Кондал, Карлтон Кьюз) [2015-2016, фантастика, боевик, триллер, WEB-DLRip, P]

407 | 281

1.12 ГБ

В этой теме нет новых непрочитанных сообщений. Колония, 1 сезон 1-4 серии из 10 / Colony [NewStudio] (Райан Кондал, Карлтон Кьюз) [2015-2016, фантастика, боевик, триллер, WEB-DLRip, P]

342 | 411

2.18 ГБ

В этой теме нет новых непрочитанных сообщений. Волна / Bоlgen (Роар Утхауг) [2015, боевик, триллер, драма, BDRip-AVC] DUB

5352 | 135

1.41 ГБ




Вы не можете начинать темы
Вы не можете отвечать на сообщения
Вы не можете редактировать свои сообщения
Вы не можете удалять свои сообщения
Вы не можете добавлять вложения

Перейти:  
Для Мосгорсуда, Роскомнадзора и рекламодателей: mosgorsud-torrent[собачка]yandex.ru
 Вход
ppkBB3cker v.2 © 2008-2014 @ PPK
[ Time : 0.039s | 15 Queries | GZIP : Off ]

Торрент трекер RUTOR.IN, Не можете зайти на rutor.org? Какой новый адрес рутор? Какое зеркало рутор? Не работает rutor.org и зеркала? Тогда наш торрент специально для вас. Rutor.in неофициальное зеркало rutor. В случае если у Вас заблокирован rutor или вдруг Вы не можете на него зайти, то Вы без труда сможете скачать бесплатно и без рекламы последние новинки кино, игр, сериалов и прочего у нас, на Rutor.in. Не нужно использовать прокси, чтобы зайти на рутор, достаточно воспользоваться нашим ресурсом. Все новые фильмы, игры, сериалы, книги и музыка за 2013 и 2014 годы через торрент бесплатно. Скачивайте фильмы в хорошем качестве, игры для пк, xbox, playstation без регистрации. У нас вы найдете новые Зарубежные сериалы и Русские сериалы 2013, 2014, 2015 годов. Оставайтесь с нами, качайте любимые фильмы, игры, сериалы, книги и музыку.