img image001 image001 image001 image001 image001 image001 image001 image001 image001 image001 image001 image001 image001 image001 image001

Planets Sun Sun Sun
Статистика раздачи
Автор: Nickolas3434 | Размер: 6.87 ГБ | Добавлен: 28 янв 2016
Раздают: 6137    Качают: 646
Скачать торрент
Скачать торрент
Описание торрента

СообщениеДобавлено: 28 янв 2016 

Египтус / Egyxos


Перевод: Профессиональный (полное дублирование), cубтитры: отсутствуют
Формат: HDTVRip, AVI, H.264, MP3
Страна: Италия
Режиссер: Энрико Паолантонио
Жанр: Приключения, фэнтези
Продолжительность: 26 х ~00:22:24
Год выпуска: 2014
В ролях: Марк Томпсон, Дэвид Уиллс, Якоб Пагуе

Описание: В мультфильме Египтус рассказывается история мистической цивилизации, затерявшейся во времени и пространстве, которая наконец-то возвращается на Землю. Египтус – удивительные существа, обладающие магической «суперсилой», которые находятся в постоянной борьбе за господство над Королевством. Между собой воюют два брата — смелый Кефер, со стороны добра, и жестокий Эксатон, со стороны зла, которые управляют своими армиями и готовят их к последней битве. Мальчик Лео, представитель человеческого рода, стал невольным участником этой войны, унаследовав безграничную силу Последнего Фараона. О своей силе Лео узнает не сразу, но когда узнает – его жизнь очень сильно меняется. Оказавшись меж двух миров (добра и зла), Лео учится справляться по-новому с критическими ситуациями не только в мире магии, но и в обычной жизни.



Видео: 1280x720 (1.78:1), 25 fps, Intel ITU H.264 ~1605 kbps avg, 0.07 bit/pixel
Аудио: 44.100 kHz, MPEG Layer 3, 2 ch, ~256.00 kbps avg


Общее
Полное имя : Египтус avi h264\Египтус 1 ср.avi
Формат : AVI
Формат/Информация : Audio Video Interleave
Размер файла : 293 Мбайт
Продолжительность : 21 м.
Общий поток : 1874 Кбит/сек
Программа кодирования : Lavf56.25.101

Видео
Идентификатор : 0
Формат : AVC
Формат/Информация : Advanced Video Codec
Профиль формата :
Параметр CABAC формата : Да
Параметр ReFrames формата : 2 кадры
Идентификатор кодека : H264
Продолжительность : 21 м.
Битрейт : 1576 Кбит/сек
Ширина : 1280 пикс.
Высота : 720 пикс.
Соотношение сторон : 16:9
Режим частоты кадров : Переменный
Частота кадров : 25,000 кадр/сек
Цветовое пространство : YUV
Подвыборка цветности : 4:2:0
Битовая глубина : 8 бит
Тип развёртки : Прогрессивная
Бит/(Пиксели*Кадры) : 0.068
Размер потока : 251 Мбайт (86%)
Библиотека кодирования : x264 core 144 r2533 c8a773e
Настройки программы : cabac=1 / ref=1 / deblock=1:0:0 / analyse=0x1:0 / me=dia / subme=2 / psy=1 / psy_rd=1.00:0.00 / mixed_ref=0 / me_range=16 / chroma_me=0 / trellis=0 / 8x8dct=0 / cqm=0 / deadzone=21,11 / fast_pskip=1 / chroma_qp_offset=0 / threads=3 / lookahead_threads=1 / sliced_threads=0 / nr=0 / decimate=1 / interlaced=0 / bluray_compat=0 / constrained_intra=0 / bframes=3 / b_pyramid=0 / b_adapt=1 / b_bias=0 / direct=1 / weightb=1 / open_gop=0 / weightp=2 / keyint=250 / keyint_min=25 / scenecut=40 / intra_refresh=0 / rc_lookahead=40 / rc=abr / mbtree=1 / bitrate=1576 / ratetol=1.0 / qcomp=0.60 / qpmin=10 / qpmax=51 / qpstep=4 / ip_ratio=1.41 / aq=1:1.00

Аудио
Идентификатор : 1
Формат : MPEG Audio
Версия формата : Version 1
Профиль формата : Layer 3
Режим : Joint stereo
Идентификатор кодека : 55
Идентификатор кодека/Подсказка : MP3
Продолжительность : 21 м.
Вид битрейта : Постоянный
Битрейт : 256 Кбит/сек
Канал(ы) : 2 канала(ов)
Частота : 44,1 КГц
Метод сжатия : С потерями
Размер потока : 40,0 Мбайт (14%)
Выравнивание : Соединение по промежуткам
Продолжительность промежутка : 26 мс. (0,65 видеокадр)
Библиотека кодирования : LAME3.99.5














   Похожие торренты   Торрент   Размер 
В этой теме нет новых непрочитанных сообщений. Египтус / Egyxos [1 сезон, 1-26 серии] (Энрико Паолантонио) [2014, Приключения, фэнтези, HDTVRip] DUB

981 | 656

17.62 ГБ

В этой теме нет новых непрочитанных сообщений. Египтус / Egyxos [1 сезон, 1-26 серии] (Энрико Паолантонио) [2014, Приключения, фэнтези, HDTVRip] DUB

425 | 255

35.99 ГБ

В этой теме нет новых непрочитанных сообщений. Стрела, 4 сезон 1-12 серии из 23 / Arrow [BaibaKo] (Грег Берланти) [2015, фантастика, фэнтези, боевик, драма, приключения, WEB-DLRip, P]

203 | 212

6.76 ГБ

В этой теме нет новых непрочитанных сообщений. Стрела, 4 сезон 1-10 серии из 23 / Arrow [BaibaKo] (Грег Берланти) [2015, фантастика, фэнтези, боевик, драма, приключения, WEB-DLRip, P]

249 | 46

5.64 ГБ

В этой теме нет новых непрочитанных сообщений. Хроники Шаннары, 1 сезон 1-6 серии из 10 / The Shannara Chronicles [NewStudio] (Альфред Гоф, Майлз Миллар) [2016, фантастика, фэнтези, приключения, WEB-DLRip, P]

26 | 14

3.13 ГБ

В этой теме нет новых непрочитанных сообщений. Хроники Шаннары, 1 сезон 1-4 серии из 10 / The Shannara Chronicles [NewStudio] (Альфред Гоф, Майлз Миллар) [2016, фантастика, фэнтези, приключения, WEB-DLRip, P]

31 | 4

2.05 ГБ

В этой теме нет новых непрочитанных сообщений. Хроники Шаннары, 1 сезон 1-5 серии из 10 / The Shannara Chronicles [NewStudio] (Альфред Гоф, Майлз Миллар) [2016, фантастика, фэнтези, приключения, WEB-DLRip, P]

133 | 276

2.59 ГБ




Вы не можете начинать темы
Вы не можете отвечать на сообщения
Вы не можете редактировать свои сообщения
Вы не можете удалять свои сообщения
Вы не можете добавлять вложения

Перейти:  
Для Мосгорсуда, Роскомнадзора и рекламодателей: mosgorsud-torrent[собачка]yandex.ru
 Вход
ppkBB3cker v.2 © 2008-2014 @ PPK
[ Time : 0.025s | 15 Queries | GZIP : Off ]

Торрент трекер RUTOR.IN, Не можете зайти на rutor.org? Какой новый адрес рутор? Какое зеркало рутор? Не работает rutor.org и зеркала? Тогда наш торрент специально для вас. Rutor.in неофициальное зеркало rutor. В случае если у Вас заблокирован rutor или вдруг Вы не можете на него зайти, то Вы без труда сможете скачать бесплатно и без рекламы последние новинки кино, игр, сериалов и прочего у нас, на Rutor.in. Не нужно использовать прокси, чтобы зайти на рутор, достаточно воспользоваться нашим ресурсом. Все новые фильмы, игры, сериалы, книги и музыка за 2013 и 2014 годы через торрент бесплатно. Скачивайте фильмы в хорошем качестве, игры для пк, xbox, playstation без регистрации. У нас вы найдете новые Зарубежные сериалы и Русские сериалы 2013, 2014, 2015 годов. Оставайтесь с нами, качайте любимые фильмы, игры, сериалы, книги и музыку.